<?xml version="1.0" standalone="no"?>
<!DOCTYPE svg PUBLIC "-//W3C//DTD SVG 1.1//EN" "http://www.w3.org/Graphics/SVG/1.1/DTD/svg11.dtd" >
<svg xmlns="http://www.w3.org/2000/svg">
<metadata>Generated by IcoMoon</metadata>
<defs>
<font id="ico-digisalad" horiz-adv-x="1024">
<font-face units-per-em="1024" ascent="960" descent="-64" />
<missing-glyph horiz-adv-x="1024" />
<glyph unicode="&#x20;" horiz-adv-x="512" d="" />
<glyph unicode="&#xe900;" glyph-name="check-circle" d="M765.416 630.303c14.282-14.282 14.282-37.437 0-51.72l-312.889-312.887c-14.282-14.282-37.438-14.282-51.72 0l-142.222 142.219c-14.282 14.282-14.282 37.439 0 51.721s37.438 14.282 51.72 0l116.362-116.364 287.027 287.031c14.282 14.282 37.439 14.282 51.722 0z" />
<glyph unicode="&#xe901;" glyph-name="angle-down" d="M236.456 595.611c10.831 10.831 28.39 10.831 39.221 0l236.391-236.388 236.386 236.388c10.833 10.831 28.39 10.831 39.223 0 10.829-10.831 10.829-28.39 0-39.22l-256-256c-10.833-10.829-28.39-10.829-39.223 0l-255.998 256c-10.831 10.831-10.831 28.39 0 39.22z" />
<glyph unicode="&#xe902;" glyph-name="x-circle" d="M708.526 592.807c14.282 14.282 14.282 37.438 0 51.72s-37.435 14.282-51.717 0l-144.808-144.807-144.807 144.807c-14.282 14.282-37.438 14.282-51.72 0s-14.282-37.437 0-51.72l144.807-144.804-144.807-144.808c-14.282-14.282-14.282-37.439 0-51.722s37.438-14.282 51.72 0l144.807 144.808 144.808-144.808c14.282-14.282 37.435-14.282 51.717 0s14.282 37.439 0 51.722l-144.803 144.808 144.803 144.804z" />
<glyph unicode="&#xe903;" glyph-name="facebook" d="M433.617 808.369c40.431 42.449 95.266 66.298 152.444 66.298h114.47c13.696 0 24.802-11.659 24.802-26.041v-160.25c0-14.382-11.106-26.041-24.802-26.041h-114.47c-3.541 0-6.942-1.477-9.446-4.107s-3.908-6.196-3.908-9.915v-94.147h127.825c7.637 0 14.848-3.695 19.55-10.015 4.698-6.321 6.366-14.564 4.51-22.342l-38.157-160.252c-2.761-11.593-12.681-19.725-24.060-19.725h-89.668v-294.46c0-14.379-11.106-26.039-24.802-26.039h-152.63c-13.698 0-24.802 11.661-24.802 26.039v294.46h-89.67c-13.698 0-24.802 11.661-24.802 26.044v160.247c0 14.383 11.104 26.042 24.802 26.042h89.67v94.147c0 60.032 22.714 117.606 63.145 160.056zM586.061 822.585c-44.023 0-86.242-18.361-117.367-51.043-31.13-32.683-48.617-77.009-48.617-123.229v-120.189c0-14.379-11.104-26.039-24.802-26.039h-89.67v-108.169h89.67c13.698 0 24.802-11.661 24.802-26.039v-294.46h103.026v294.46c0 14.379 11.102 26.039 24.802 26.039h95.104l25.758 108.169h-120.862c-13.7 0-24.802 11.661-24.802 26.039v120.189c0 17.531 6.63 34.345 18.441 46.742 11.806 12.397 27.819 19.361 44.518 19.361h89.668v108.169h-89.668z" />
<glyph unicode="&#xe904;" glyph-name="data" d="M874.666 91.734h-682.667c-8.107 0-14.933 6.827-14.933 14.933v725.333c0 15.36-12.373 27.733-27.733 27.733s-27.733-12.373-27.733-27.733v-725.333c0-38.827 31.573-70.4 70.4-70.4h682.667c15.36 0 27.733 12.373 27.733 27.733s-12.373 27.733-27.733 27.733zM321.759 321.707l167.251 167.253 104.96-104.96c10.667-10.667 28.591-10.667 39.258 0l189.013 189.014v-82.347c0-15.36 12.373-27.733 27.729-27.733 15.36 0 27.733 12.373 27.733 27.733v149.334c0 3.413-0.849 6.4-1.702 9.387 0 0 0 0.853 0 1.28-2.987 6.827-8.107 12.373-14.933 15.36-2.564 1.28-5.551 1.28-8.538 1.707-0.853 0-1.276 0.427-2.129 0.427h-149.333c-15.36 0-27.733-12.373-27.733-27.733s12.373-27.733 27.733-27.733h82.347l-169.387-169.387-104.96 104.96c-10.667 10.667-28.587 10.667-39.253 0l-186.882-186.88c-10.667-10.667-10.667-28.587 0-39.253s28.587-10.667 39.253 0l-0.427-0.427z" />
<glyph unicode="&#xe905;" glyph-name="gift" d="M866.987 654.080h-96.853c11.093 18.347 17.92 39.68 17.92 61.013 0 30.72-12.373 60.587-34.133 82.347-22.187 22.187-51.2 34.133-82.347 34.133-84.907 0-133.547-64.853-160-120.747-26.453 55.893-75.093 120.747-160 120.747-30.72 0-60.587-12.373-82.347-34.133s-34.133-51.627-34.133-82.347c0-21.76 6.4-42.667 17.92-61.013h-97.28c-15.36 0-27.733-12.373-27.733-27.733v-177.92c0-15.36 12.373-27.733 27.733-27.733h43.093v-327.68c0-15.36 12.373-27.733 27.733-27.733h568.747c15.36 0 27.733 12.373 27.733 27.733v327.68h43.52c15.36 0 27.733 12.373 27.733 27.733v177.92c0 15.36-12.373 27.733-27.733 27.733h0.427zM671.573 776.533c16.213 0 31.573-6.4 43.093-17.92s17.92-27.307 17.92-43.093c0-15.787-6.4-32-17.92-43.093-11.52-11.52-26.88-17.92-43.093-17.92h-123.307c15.787 45.653 52.48 122.453 123.307 122.453v-0.427zM308.053 672c-11.52 11.52-17.92 27.307-17.92 43.093s6.4 32 17.92 43.093c11.52 11.52 27.307 17.92 43.093 17.92 70.827 0 107.52-76.8 123.307-122.453h-123.307c-16.213 0-32 6.4-43.093 17.92v0.427zM183.467 598.613h299.947v-122.453h-299.947v122.453zM254.293 420.693h229.12v-299.947h-229.12v299.947zM767.573 120.747h-228.693v299.947h228.693v-299.947zM838.827 476.16h-299.947v122.453h299.947v-122.453z" />
<glyph unicode="&#xe906;" glyph-name="language" d="M909.777 295.113c0 0 1.779 4.442 2.667 6.665 16.887 45.777 26.223 94.669 26.223 145.779s-9.779 100.444-26.223 145.777c-0.444 2.222-1.331 4.889-2.667 6.667-61.777 160.889-216.444 274.667-397.777 274.667s-336.889-114.222-398.222-274.667c-0.889-1.333-1.333-2.667-1.778-4.445-16.889-46.222-26.667-95.553-26.667-147.555s9.778-101.333 26.667-147.554c0.445-1.335 0.889-3.11 1.778-4.446 61.333-160.444 216.444-274.667 398.222-274.667 13.333 0 26.667 0.887 39.556 2.223 163.998 15.556 300.89 123.554 357.777 271.556h0.444zM691.998 558.222h172.002c11.11-34.668 16.887-72.001 16.887-110.222s-5.777-75.554-16.887-110.221h-172.002c5.333 34.223 8 71.108 8 110.221s-3.11 75.998-8 110.222zM840 616h-158.669c-18.667 81.333-47.108 144.445-70.221 186.667 99.554-28 182.221-96.445 228.89-186.667zM642.667 448c0-39.113-3.554-75.998-8.887-110.221h-242.224c-5.777 34.223-8.889 71.108-8.889 110.221s3.555 75.998 8.889 110.222h242.224c5.777-34.224 8.887-71.11 8.887-110.222zM536 815.555c16.444-24.889 59.11-96 85.333-199.555h-218.222c26.222 103.555 68.445 174.222 85.332 199.555 8 0.445 16 1.333 24 1.333s16-0.889 24-1.333h-0.444zM413.333 803.111c-23.111-42.223-51.555-105.778-70.222-186.667h-159.111c46.667 90.667 129.333 159.111 229.333 186.667zM332 337.779h-172c-11.111 34.667-16.889 72-16.889 110.221s5.777 75.554 16.889 110.222h172c-5.333-34.224-8-71.11-8-110.222s3.111-75.998 8-110.221zM184 280h159.111c18.667-81.335 47.111-144.444 70.222-186.667-100 27.554-182.667 96.444-229.333 186.667zM488 80.444c-16.444 25.335-59.11 96-85.333 199.556h218.223c-26.223-103.556-68.446-174.221-85.333-199.556-8-0.444-16-1.331-24-1.331s-16 0.887-24 1.331h0.444zM610.667 92.89c23.113 42.223 51.554 105.775 70.221 186.667h158.669c-46.669-90.223-129.335-159.113-228.89-186.667z" />
<glyph unicode="&#xe907;" glyph-name="life" d="M497.067 917.333c-250.88 0-454.4-203.52-454.4-454.4s203.52-454.4 454.4-454.4c250.88 0 454.4 203.52 454.4 454.4s-203.52 454.4-454.4 454.4zM896 462.933c0-100.267-37.12-191.573-98.133-261.547l-142.933 142.933c25.173 33.28 40.533 74.24 40.533 119.040s-15.36 85.76-40.533 119.040l132.693 132.693c3.84 3.84 5.547 8.533 6.827 13.227 62.72-70.4 101.12-162.987 101.12-264.96l0.427-0.427zM354.133 462.933c0 78.933 64 142.933 142.933 142.933s142.933-64 142.933-142.933c0-78.933-64-142.933-142.933-142.933s-142.933 64-142.933 142.933zM762.027 760.747c-4.693-1.28-9.387-2.987-13.227-6.827l-133.12-133.12c-33.28 25.173-73.813 40.533-118.613 40.533s-85.76-15.36-118.613-40.533l-142.933 142.933c69.973 61.013 161.28 98.133 261.547 98.133s194.133-38.4 264.96-101.12zM196.693 724.48l142.933-142.933c-25.173-33.28-40.533-74.24-40.533-118.613s15.36-85.76 40.533-118.613l-142.933-142.933c-61.013 69.973-98.133 161.28-98.133 261.547s37.12 191.573 98.133 261.547zM235.947 162.133l142.933 142.933c33.28-25.173 74.24-40.533 118.613-40.533s85.76 15.36 118.613 40.533l142.933-142.933c-69.973-61.013-161.28-98.133-261.547-98.133s-191.573 37.12-261.547 98.133z" />
<glyph unicode="&#xe908;" glyph-name="challenges" d="M295.167 590.224c0-119.785 97.104-216.89 216.889-216.89 41.946 0 81.109 11.908 114.3 32.529 1.903 1.57 3.998 2.927 6.251 4.032 58.095 38.912 96.337 105.156 96.337 180.329 0 119.785-97.105 216.889-216.887 216.889-119.785 0-216.889-97.105-216.889-216.889zM621.039 331.26c-33.51-14.118-70.336-21.926-108.983-21.926-38.716 0-75.597 7.834-109.155 21.999l-28.271-212.847 120.85 72.512c10.138 6.080 22.797 6.080 32.93 0l120.862-72.516-28.233 212.779zM342.934 365.935c-67.89 51.273-111.767 132.655-111.767 224.289 0 155.131 125.758 280.889 280.889 280.889s280.887-125.758 280.887-280.889c0-91.702-43.947-173.144-111.927-224.408l40.431-304.717c1.613-12.181-3.887-24.209-14.157-30.955s-23.497-7.014-34.031-0.691l-161.314 96.785-161.313-96.785c-10.537-6.323-23.763-6.054-34.033 0.691s-15.77 18.778-14.152 30.959l40.488 304.832z" />
<glyph unicode="&#xe909;" glyph-name="e-stamp" d="M422.252 840.969l89.77 23.031c-31.39 0.038-62.276-7.886-89.77-23.031zM422.252 840.969c-21.034-11.586-39.557-27.108-54.598-45.651-8.182 0.969-16.427 1.392-24.681 1.265l-0.694-0.018c-47.011-1.746-91.605-21.279-124.764-54.649h-0.001l-0.146-0.149c-21.764-22.191-37.606-49.492-46.074-79.398-6.475-22.87-8.479-46.703-5.978-70.205-18.633-14.978-34.252-33.461-45.935-54.476-15.236-27.407-23.28-58.229-23.381-89.585v-0.115c0.014-31.445 8.016-62.37 23.256-89.877 11.704-21.12 27.382-39.693 46.099-54.733-2.457-23.552-0.391-47.424 6.16-70.319 8.558-29.909 24.497-57.186 46.351-79.326v0l0.171-0.171c22.244-22.195 49.76-38.383 79.968-47.036 23.207-6.652 47.42-8.691 71.281-6.084 14.887-18.295 33.169-33.634 53.908-45.141 27.106-15.040 57.549-23.049 88.55-23.3h0.247c31.262-0.009 62.016 7.876 89.417 22.929 21.052 11.567 39.599 27.072 54.66 45.606 23.774-2.475 47.872-0.341 70.955 6.357 30.042 8.721 57.387 24.887 79.505 47.006s38.285 49.463 47.006 79.501c6.707 23.108 8.836 47.232 6.349 71.027 18.406 15.049 33.805 33.54 45.291 54.507 14.955 27.298 22.805 57.92 22.827 89.045v0.013c0.009 31.262-7.876 62.016-22.929 89.416-11.567 21.052-27.072 39.598-45.606 54.662 2.475 23.773 0.341 47.871-6.357 70.955-8.721 30.038-24.887 57.386-47.006 79.503s-49.463 38.286-79.505 47.005c-23.104 6.707-47.228 8.838-71.023 6.351-15.049 18.405-33.54 33.801-54.507 45.289-27.294 14.952-57.907 22.801-89.024 22.827l-89.791-23.031zM800.414 556.922c2.189-2.567 4.791-4.801 7.735-6.586 17.037-10.951 31.074-25.984 40.828-43.742 9.86-17.95 15.027-38.093 15.023-58.573-0.013-20.39-5.158-40.452-14.955-58.338-9.801-17.886-23.936-33.020-41.118-44.006-11.337-7.253-16.922-20.821-13.982-33.954 4.484-19.998 3.836-40.802-1.877-60.48-5.709-19.682-16.303-37.598-30.793-52.092-14.494-14.49-32.41-25.084-52.092-30.793-19.678-5.713-40.482-6.362-60.48-1.877-13.171 2.948-26.773-2.679-34.010-14.071-10.982-17.289-26.15-31.526-44.1-41.387-17.916-9.843-38.025-15.010-58.462-15.023-20.267 0.183-40.166 5.431-57.89 15.262-17.758 9.856-32.768 24-43.655 41.148-7.271 11.447-20.971 17.071-34.188 14.029-20.064-4.617-40.972-4.062-60.763 1.609-19.753 5.662-37.749 16.235-52.308 30.733-14.275 14.49-24.687 32.329-30.283 51.887-5.607 19.597-6.199 40.286-1.721 60.169 2.985 13.252-2.724 26.948-14.24 34.155-17.463 10.931-31.863 26.121-41.848 44.139-9.975 18.005-15.218 38.246-15.237 58.829 0.076 20.523 5.345 40.695 15.318 58.633 9.982 17.958 24.352 33.092 41.766 43.992 11.54 7.223 17.246 20.955 14.224 34.229-4.521 19.856-3.983 40.529 1.565 60.123 5.538 19.56 15.892 37.419 30.113 51.945 21.636 21.736 50.683 34.491 81.321 35.717 10.119 0.128 20.215-1.009 30.053-3.383 13.344-3.22 27.254 2.429 34.575 14.041 10.97 17.4 26.175 31.733 44.193 41.658s38.259 15.116 58.829 15.089h0.021c20.39-0.015 40.452-5.158 58.338-14.956s33.020-23.937 44.006-41.115c7.253-11.336 20.821-16.924 33.954-13.981 19.998 4.48 40.802 3.835 60.48-1.878 19.682-5.712 37.598-16.305 52.092-30.796 14.49-14.49 25.084-32.408 30.793-52.088 5.713-19.68 6.362-40.486 1.877-60.482-1.771-7.916-0.444-15.803 3.174-22.394 1.050-1.908 2.291-3.715 3.721-5.386zM662.626 555.961c-12.497 12.497-32.755 12.497-45.252 0l-148.041-148.038-62.706 62.703c-12.497 12.497-32.758 12.497-45.255 0s-12.497-32.755 0-45.252l85.335-85.333c12.497-12.497 32.755-12.497 45.252 0 0.013 0.009 0.021 0.017 0.030 0.030l170.637 170.637c12.497 12.497 12.497 32.757 0 45.254z" />
<glyph unicode="&#xe90a;" glyph-name="mail" d="M114.71 717.336l397.358-278.151 397.355 278.148c-6.076 25.271-28.988 44.268-56.021 44.268h-682.668c-27.032 0-49.947-18.995-56.023-44.265zM113.133 650.734v-458.734c0-31.616 25.984-57.6 57.6-57.6h682.668c31.616 0 57.6 25.984 57.6 57.6v458.731l-383.027-268.117c-9.549-6.686-22.259-6.686-31.808 0l-383.033 268.121zM966.468 703.508v-511.508c0-62.251-50.82-113.067-113.067-113.067h-682.668c-62.25 0-113.067 50.816-113.067 113.067v512.001c0 62.25 50.817 113.067 113.067 113.067h682.668c62.042 0 112.725-50.479 113.062-112.445 0.009-0.372 0.009-0.743 0.004-1.114z" />
<glyph unicode="&#xe90b;" glyph-name="phone" d="M803.823 51.2c-3.413 0-6.4 0-9.813 0.427-122.88 13.227-242.347 55.893-345.6 122.453-95.998 61.013-178.772 143.787-240.212 239.787-66.987 103.68-109.227 223.147-122.453 346.027-1.28 15.36 0.427 29.44 5.12 43.52 4.693 13.653 11.947 26.027 21.76 37.12 9.813 10.667 21.76 19.2 34.987 25.173 13.653 5.973 28.16 8.96 42.667 8.96h115.627c25.173-0.427 49.92-8.533 69.12-25.173s32-39.68 35.413-64.853c4.693-34.987 13.227-69.547 25.598-102.4 7.253-18.773 8.533-39.253 4.267-58.88-3.84-19.627-13.652-37.547-27.732-51.627l-33.707-34.133c48.212-78.080 114.345-143.787 192.425-192l33.707 33.707c14.507 14.080 32.427 23.893 52.053 28.16s40.107 2.56 58.88-4.267c32.853-12.373 67.413-20.907 102.4-25.6 25.6-3.84 49.067-16.213 65.707-35.84s25.6-44.373 24.747-69.973v-115.2c0-14.507-2.987-28.587-8.96-42.24s-14.507-25.6-25.173-35.413c-10.667-9.813-23.467-17.493-37.547-22.187-10.667-3.84-21.76-5.547-33.28-5.547zM306.758 819.2h-116.48c-6.827 0-13.653-1.28-20.053-4.267-6.4-2.56-11.947-6.827-16.64-11.947s-8.107-11.093-10.24-17.493c-2.133-6.4-2.987-13.227-2.56-20.053 11.947-113.92 51.627-225.28 114.347-321.707 56.747-89.173 133.973-166.4 223.145-222.72 96.427-62.293 207.36-101.973 321.28-113.92 6.4-0.427 13.227 0 19.627 2.56 6.4 2.133 12.373 5.973 17.493 10.24 5.12 4.693 8.96 10.24 11.947 16.64 3.413 5.973 4.693 12.8 4.693 19.627v115.627c0 0.427 0 0.427 0 0.853 0.427 11.947-3.84 23.893-11.52 33.28s-18.773 15.36-30.72 17.067c-38.827 5.12-77.227 14.507-114.347 28.587-8.96 3.413-18.347 4.267-27.733 2.133s-17.92-6.4-24.32-13.227l-49.067-48.64c-8.96-8.96-22.613-10.667-33.28-4.693-101.12 57.173-184.745 140.8-241.918 241.493-6.827 10.667-5.12 24.32 3.84 33.28l49.067 49.067c6.4 6.4 11.093 14.933 13.227 23.893 1.707 9.387 1.28 18.773-2.133 27.733-14.080 36.693-23.467 75.52-28.587 114.347-1.707 11.52-7.68 22.613-16.64 30.293s-20.48 11.947-32.427 11.947z" />
<glyph unicode="&#xe90c;" glyph-name="point" d="M606.72 832c-210.347 0-369.067-74.667-369.067-174.080v-40.96c-122.027-29.44-194.987-86.187-194.987-154.027v-194.987c0-61.44 60.587-115.2 165.973-146.773 59.733-17.92 130.133-27.307 203.093-27.307s142.933 9.387 203.093 27.307c105.387 31.573 165.973 84.907 165.973 146.773v40.96c9.813 2.56 19.627 4.693 29.013 7.253 105.387 31.573 165.973 84.907 165.973 146.773v194.987c0 99.413-158.72 174.080-369.067 174.080zM237.653 559.787v-96.853c0-43.52 30.72-82.773 85.333-113.067-34.987 4.267-68.693 10.667-98.56 19.627-76.8 23.040-126.293 59.733-126.293 93.44 0 36.267 55.893 74.24 139.52 96.853zM725.333 267.947c0-33.707-49.493-70.4-126.293-93.44-109.653-32.853-264.96-32.853-374.187 0-76.8 23.040-126.293 59.733-126.293 93.44v100.693c27.733-20.907 64.853-38.4 110.507-52.053 87.467-26.027 200.96-34.133 301.227-21.333 31.147-3.84 63.573-5.973 96.427-5.973 40.96 0 80.64 3.413 118.613 8.96v-30.293zM920.32 462.933c0-33.707-49.493-70.4-126.293-93.44-109.227-32.853-264.107-32.853-374.187 0-76.8 23.040-126.293 59.733-126.293 93.44v100.693c27.733-20.907 64.853-38.4 110.507-52.053 119.893-35.84 286.72-35.84 405.76 0 45.653 13.653 83.2 31.573 110.507 52.053v-100.693zM793.6 564.48c-109.227-32.853-264.107-32.853-374.187 0-76.8 23.040-126.293 59.733-126.293 93.44 0 55.893 133.973 118.613 313.6 118.613s313.6-62.72 313.6-118.613c0-33.707-49.493-70.4-126.72-93.44z" />
<glyph unicode="&#xe90d;" glyph-name="referral" d="M139.862 322.304c32.673 32.674 76.987 51.029 123.194 51.029h284.443c46.208 0 90.522-18.355 123.196-51.029s51.029-76.988 51.029-123.191v-71.113c0-17.673-14.327-32-32-32s-32 14.327-32 32v71.113c0 29.231-11.614 57.267-32.286 77.939-20.668 20.668-48.704 32.282-77.939 32.282h-284.443c-29.233 0-57.268-11.614-77.939-32.282-20.671-20.672-32.283-48.708-32.283-77.939v-71.113c0-17.673-14.327-32-32-32s-32 14.327-32 32v71.113c0 46.204 18.356 90.517 51.028 123.191zM405.389 736c-60.874 0-110.222-49.348-110.222-110.222s49.348-110.224 110.222-110.224c60.873 0 110.221 49.35 110.221 110.224s-49.348 110.222-110.221 110.222zM231.167 625.778c0 96.22 78.002 174.222 174.222 174.222 96.222 0 174.221-78.002 174.221-174.222s-77.999-174.224-174.221-174.224c-96.22 0-174.222 78.003-174.222 174.224zM765.525 344.713c4.416 17.109 21.871 27.401 38.985 22.98 37.376-9.647 70.485-31.437 94.135-61.948 23.65-30.507 36.501-68.006 36.527-106.611l0.004-71.134c0-17.673-14.327-32-32-32-17.677 0-32 14.327-32 32v71.087c0 0.004 0 0 0 0-0.021 24.418-8.149 48.149-23.113 67.447-14.959 19.302-35.908 33.088-59.554 39.194-17.114 4.416-27.405 21.871-22.985 38.985zM623.172 771.315c4.386 17.121 21.82 27.447 38.938 23.063 37.478-9.595 70.694-31.391 94.413-61.949 23.723-30.559 36.595-68.144 36.595-106.828s-12.873-76.269-36.595-106.829c-23.718-30.558-56.934-52.352-94.413-61.948-17.118-4.386-34.551 5.939-38.938 23.061-4.382 17.122 5.943 34.556 23.066 38.938 23.71 6.071 44.723 19.859 59.729 39.192s23.151 43.111 23.151 67.585c0 24.474-8.145 48.252-23.151 67.585s-36.019 33.122-59.729 39.192c-17.122 4.384-27.447 21.817-23.066 38.937z" />
<glyph unicode="&#xe90e;" glyph-name="transfer" d="M512 749.333c-170.249 0-301.333-122.595-301.333-261.333 0-17.673-14.327-32-32-32s-32 14.327-32 32c0 181.262 167.369 325.333 365.333 325.333 110.089 0 200.341-51.291 261.658-100.346 14.793-11.834 28.053-23.658 39.676-34.801v103.147c0 17.673 14.327 32 32 32s32-14.327 32-32v-186.667c0-17.673-14.327-32-32-32h-160c-17.673 0-32 14.327-32 32s14.327 32 32 32h89.182c-11.614 11.456-25.293 23.907-40.841 36.346-55.347 44.279-131.763 86.321-221.675 86.321zM845.333 440c17.673 0 32-14.327 32-32 0-181.261-167.369-325.333-365.333-325.333-110.091 0-200.339 51.29-261.657 100.343-14.793 11.836-28.056 23.659-39.677 34.803v-103.147c0-17.673-14.327-32-32-32s-32 14.327-32 32v186.667c0 17.673 14.327 32 32 32h160c17.673 0 32-14.327 32-32s-14.327-32-32-32h-89.18c11.613-11.456 25.289-23.906 40.837-36.343 55.349-44.279 131.767-86.323 221.676-86.323 170.249 0 301.333 122.594 301.333 261.333 0 17.673 14.327 32 32 32z" />
<glyph unicode="&#xe90f;" glyph-name="activity" d="M419.622 795.734c11.938 0 22.537-7.639 26.308-18.963l187.025-561.070 80.358 241.071c3.772 11.324 14.37 18.961 26.308 18.961h142.221c15.317 0 27.733-12.416 27.733-27.733s-12.416-27.733-27.733-27.733h-122.231l-100.348-301.035c-3.772-11.324-14.37-18.965-26.308-18.965s-22.537 7.642-26.308 18.965l-187.025 561.068-80.357-241.068c-3.775-11.324-14.373-18.965-26.31-18.965h-142.223c-15.316 0-27.733 12.416-27.733 27.733s12.417 27.733 27.733 27.733h122.233l100.346 301.038c3.775 11.325 14.373 18.963 26.31 18.963z" />
<glyph unicode="&#xe910;" glyph-name="add" d="M507.008 831.701l4.992 0.299c10.449-0.001 20.535-3.838 28.348-10.783 7.808-6.944 12.796-16.513 14.020-26.892l0.299-4.992v-298.667h298.667c10.449 0 20.535-3.84 28.348-10.782 7.808-6.946 12.796-16.512 14.020-26.893l0.299-4.992c0-10.449-3.84-20.535-10.782-28.348-6.946-7.808-16.512-12.796-26.893-14.020l-4.992-0.299h-298.667v-298.667c0-10.449-3.84-20.535-10.782-28.348-6.946-7.808-16.512-12.796-26.893-14.020l-4.992-0.299c-10.449 0-20.535 3.84-28.348 10.782-7.808 6.946-12.796 16.512-14.020 26.893l-0.299 4.992v298.667h-298.667c-10.45 0-20.537 3.84-28.346 10.782-7.81 6.946-12.799 16.512-14.022 26.893l-0.299 4.992c0.001 10.449 3.838 20.535 10.783 28.348 6.944 7.808 16.513 12.796 26.892 14.020l4.992 0.299h298.667v298.667c0 10.45 3.84 20.537 10.782 28.346 6.946 7.81 16.512 12.799 26.893 14.022z" />
<glyph unicode="&#xe911;" glyph-name="charm_circle-tick" d="M683.717 805.264c-156.020 62.408-346.773 27.804-459.274-96.109l-0.003-0.002c-54.966-60.512-89.44-136.821-98.513-218.066-9.073-81.243 7.717-163.278 47.979-234.425s101.946-127.775 176.265-161.827c74.319-34.050 157.488-43.786 237.662-27.818h0.003c163.716 32.558 281.541 178.762 312.839 335.248 1.252 6.261 7.343 10.323 13.603 9.071 6.261-1.254 10.323-7.343 9.071-13.604-32.704-163.515-156.158-318.623-331.003-353.392-84.946-16.916-173.063-6.601-251.805 29.475-78.744 36.078-144.098 96.079-186.758 171.461s-60.449 162.301-50.835 248.379c9.613 86.079 46.139 166.932 104.375 231.044zM207.324 724.7c119.691 131.83 321.001 167.625 484.98 102.033 5.929-2.371 8.813-9.1 6.441-15.028s-9.1-8.812-15.028-6.441zM919.854 728.498c4.692-4.331 4.985-11.646 0.654-16.338l-384-416c-2.134-2.311-5.118-3.653-8.265-3.716-3.145-0.063-6.18 1.159-8.405 3.384l-160 160c-4.516 4.514-4.516 11.834 0 16.349 4.514 4.516 11.834 4.516 16.349 0l151.491-151.491 375.839 407.157c4.331 4.692 11.646 4.985 16.336 0.654z" />
<glyph unicode="&#xe912;" glyph-name="angle-left" d="M659.678 723.611c10.829-10.831 10.829-28.39 0-39.22l-236.39-236.391 236.39-236.39c10.829-10.829 10.829-28.39 0-39.219-10.833-10.829-28.39-10.829-39.223 0l-255.998 256c-10.831 10.829-10.831 28.39 0 39.219l255.998 256.002c10.833 10.831 28.39 10.831 39.223 0z" />
<glyph unicode="&#xe913;" glyph-name="angle-right" d="M364.456 723.611c-10.831-10.831-10.831-28.39 0-39.22l236.389-236.391-236.389-236.39c-10.831-10.829-10.831-28.39 0-39.219s28.39-10.829 39.221 0l256.001 256c10.829 10.829 10.829 28.39 0 39.219l-256.001 256.002c-10.831 10.831-28.39 10.831-39.221 0z" />
<glyph unicode="&#xe914;" glyph-name="angle-up" d="M236.456 300.39c10.831-10.833 28.39-10.833 39.221 0l236.391 236.388 236.386-236.388c10.833-10.833 28.39-10.833 39.223 0 10.829 10.829 10.829 28.39 0 39.219l-256 256c-10.833 10.831-28.39 10.831-39.223 0l-255.998-256c-10.831-10.829-10.831-28.39 0-39.219z" />
<glyph unicode="&#xe915;" glyph-name="arrow-down" d="M497.101 789.331c15.36 0 27.733-12.373 27.733-27.733v-597.331c0-15.36-12.373-27.733-27.733-27.733s-27.733 12.373-27.733 27.733v597.331c0 15.36 12.373 27.733 27.733 27.733zM198.374 490.662c7.253 0 14.080-2.56 19.627-8.107l279.041-279.040 279.040 279.040c10.667 10.667 28.587 10.667 39.253 0s10.667-28.587 0-39.253l-298.667-298.667c-10.667-10.667-28.587-10.667-39.253 0l-298.668 298.667c-10.667 10.667-10.667 28.587 0 39.253 5.547 5.547 12.373 8.107 19.627 8.107z" />
<glyph unicode="&#xe916;" glyph-name="arrow-left" d="M823.467 462.933c0-15.36-12.373-27.733-27.733-27.733h-597.333c-15.36 0-27.733 12.373-27.733 27.733s12.373 27.733 27.733 27.733h597.333c15.36 0 27.733-12.373 27.733-27.733zM524.86 761.595c0-7.253-2.56-14.080-8.107-19.627l-279.040-279.040 279.040-279.040c10.667-10.667 10.667-28.587 0-39.253s-28.587-10.667-39.253 0l-298.666 298.667c-10.667 10.667-10.667 28.587 0 39.253l298.666 298.666c10.667 10.667 28.587 10.667 39.253 0 5.547-5.547 8.107-12.373 8.107-19.627z" />
<glyph unicode="&#xe917;" glyph-name="arrow-open" d="M266.178 232.132c-10.861 10.863-10.861 28.361 0 39.223l422.377 422.377c10.863 10.861 28.361 10.861 39.223 0 10.859-10.861 10.859-28.36 0-39.22l-422.38-422.38c-10.861-10.859-28.36-10.859-39.221 0zM688.58 232.132c-5.129 5.129-8.149 11.767-8.149 19.61v394.623h-394.62c-15.085 0-27.756 12.672-27.756 27.756s12.672 27.756 27.756 27.756h422.379c15.083 0 27.755-12.672 27.755-27.756v-422.379c0-15.083-12.672-27.755-27.755-27.755-7.846 0-14.481 3.017-19.61 8.145z" />
<glyph unicode="&#xe918;" glyph-name="arrow-right" d="M170.7 462.933c0 15.36 12.373 27.733 27.733 27.733h597.334c15.36 0 27.733-12.373 27.733-27.733s-12.373-27.733-27.733-27.733h-597.334c-15.36 0-27.733 12.373-27.733 27.733zM469.308 164.271c0 7.253 2.56 14.080 8.107 19.627l279.040 279.040-279.040 279.038c-10.667 10.667-10.667 28.587 0 39.253s28.587 10.667 39.253 0l298.667-298.665c10.667-10.667 10.667-28.587 0-39.253l-298.667-298.667c-10.667-10.667-28.587-10.667-39.253 0-5.547 5.547-8.107 12.373-8.107 19.627z" />
<glyph unicode="&#xe919;" glyph-name="arrow-top" d="M497.067 136.533c-15.36 0-27.733 12.373-27.733 27.733v597.333c0 15.36 12.373 27.733 27.733 27.733s27.733-12.373 27.733-27.733v-597.333c0-15.36-12.373-27.733-27.733-27.733zM795.793 435.204c-7.253 0-14.080 2.56-19.627 8.107l-279.040 279.038-279.040-279.038c-10.667-10.667-28.587-10.667-39.253 0s-10.667 28.587 0 39.253l298.666 298.665c10.667 10.667 28.587 10.667 39.253 0l298.667-298.665c10.667-10.667 10.667-28.587 0-39.253-5.547-5.547-12.373-8.107-19.627-8.107z" />
<glyph unicode="&#xe91a;" glyph-name="award" d="M512.068 889.601c-149.634 0-270.935-121.301-270.935-270.933s121.301-270.934 270.935-270.934c149.632 0 270.933 121.301 270.933 270.934s-121.301 270.933-270.933 270.933zM185.667 618.668c0 180.266 146.134 326.4 326.402 326.4 180.262 0 326.4-146.134 326.4-326.4 0-180.268-146.138-326.401-326.4-326.401-180.268 0-326.402 146.133-326.402 326.401zM670.080 390.153c15.181 2.039 29.137-8.614 31.181-23.791l51.627-384c1.417-10.534-3.311-20.954-12.173-26.82s-20.297-6.157-29.444-0.742l-199.202 117.952-199.204-117.952c-9.146-5.414-20.583-5.124-29.444 0.742-8.861 5.871-13.589 16.29-12.171 26.825l51.627 383.578c2.043 15.181 16.005 25.83 31.185 23.787s25.829-16.004 23.786-31.185l-43.992-326.857 164.083 97.156c8.713 5.158 19.546 5.158 28.258 0l164.096-97.161-44.002 327.283c-2.044 15.181 8.61 29.141 23.791 31.185z" />
<glyph unicode="&#xe91b;" glyph-name="bell" d="M331.552 780.233c47.876 47.876 112.808 74.772 180.516 74.772s132.642-26.896 180.518-74.772c47.876-47.876 74.769-112.81 74.769-180.517 0-128.655 27.533-209.329 53.504-256.941 13.026-23.881 25.809-39.723 34.897-49.318 4.553-4.804 8.201-8.064 10.513-9.993 1.156-0.96 1.98-1.591 2.415-1.92l0.346-0.252c9.997-6.814 14.43-19.345 10.914-30.946-3.541-11.699-14.323-19.695-26.543-19.695h-682.666c-12.221 0-23.002 7.996-26.543 19.695-3.513 11.601 0.919 24.132 10.916 30.946l0.344 0.252c0.437 0.329 1.261 0.96 2.417 1.92 2.312 1.929 5.958 5.188 10.51 9.993 9.091 9.596 21.873 25.438 34.897 49.318 25.972 47.612 53.503 128.286 53.503 256.941 0 67.707 26.897 132.64 74.772 180.517zM233.469 286.118h557.2c-6.046 8.721-12.297 18.714-18.505 30.097-30.916 56.678-60.275 146.675-60.275 283.501 0 52.996-21.052 103.822-58.526 141.296s-88.299 58.526-141.295 58.526c-52.996 0-103.821-21.053-141.295-58.526s-58.527-88.3-58.527-141.296c0-136.826-29.358-226.822-60.275-283.501-6.208-11.383-12.455-21.376-18.503-30.097zM432.491 130.667c13.248 7.689 30.217 3.179 37.905-10.074 4.228-7.292 10.3-13.342 17.604-17.549 7.305-4.211 15.586-6.426 24.017-6.426s16.713 2.214 24.017 6.426c7.305 4.207 13.376 10.257 17.604 17.549 7.684 13.252 24.657 17.762 37.905 10.074 13.248-7.684 17.758-24.653 10.074-37.905-9.105-15.697-22.174-28.727-37.901-37.781-15.723-9.058-33.553-13.828-51.699-13.828s-35.977 4.77-51.703 13.828c-15.723 9.054-28.791 22.084-37.898 37.781-7.686 13.252-3.176 30.221 10.075 37.905z" />
<glyph unicode="&#xe91c;" glyph-name="bonus" d="M609.685 207.36c-3.413 0-6.4 0.427-9.813 1.707l-98.133 40.107-98.132-40.107c-8.107-3.413-17.92-2.133-24.747 2.987-7.253 5.12-11.093 14.080-10.24 23.040l8.96 101.973-69.12 77.227c-5.973 6.827-8.107 16.213-5.12 24.747 2.56 8.533 9.813 15.36 18.773 17.067l103.68 23.040 54.612 87.893c9.387 14.933 34.133 14.933 43.52 0l54.613-87.893 103.68-23.040c8.96-2.133 16.213-8.533 18.773-17.067 2.987-8.533 0.853-17.92-5.12-24.747l-69.12-77.227 8.96-101.973c0.853-8.96-2.987-17.493-10.24-23.040-4.693-3.413-9.813-5.12-15.36-5.12l-0.427 0.427zM502.165 302.933c3.413 0 6.827-0.427 9.813-1.707l68.693-28.16-6.4 70.827c-0.427 7.253 1.707 14.080 6.4 19.2l47.36 52.907-71.253 15.787c-6.827 1.707-12.373 5.547-16.213 11.52l-38.4 62.293-38.4-62.293c-3.413-5.973-9.387-9.813-16.213-11.52l-71.252-15.787 47.36-52.907c4.692-5.12 7.252-12.373 6.398-19.2l-6.398-70.827 68.692 28.16c2.987 1.28 6.4 1.707 9.813 1.707zM502.187-1.28c-206.507 0-374.187 169.813-374.187 378.88s167.68 378.879 374.187 378.879c206.507 0 374.187-169.813 374.187-378.879s-167.68-378.88-374.187-378.88zM502.187 705.706c-177.92 0-322.987-147.2-322.987-327.679s145.067-327.68 322.987-327.68c177.92 0 322.987 147.2 322.987 327.68s-145.067 327.679-322.987 327.679zM502.208 95.147c-154.028 0-279.041 126.72-279.041 282.453s125.013 282.452 279.041 282.452c154.027 0 279.040-126.719 279.040-282.452s-125.013-282.453-279.040-282.453zM502.208 609.279c-125.868 0-227.841-103.679-227.841-231.252s102.4-231.253 227.841-231.253c125.44 0 227.84 103.68 227.84 231.253s-102.4 231.252-227.84 231.252zM305.844 648.535c-8.96 0-17.493 4.693-22.187 12.8l-123.733 217.6c-6.827 12.373-2.56 27.733 9.387 34.987 12.373 7.253 28.16 2.56 34.987-9.387l123.733-217.173c6.827-12.373 2.56-27.733-9.387-34.987-3.84-2.133-8.533-3.413-12.8-3.413v-0.427zM490.193 710.402c-8.96 0-17.493 4.693-22.187 12.8l-88.748 155.733c-6.827 12.373-2.56 27.733 9.387 34.987 12.373 7.253 28.16 2.56 34.987-9.387l88.748-155.733c6.827-12.373 2.56-27.733-9.387-34.987-3.84-2.133-8.533-3.413-12.8-3.413zM700.561 653.225c-4.267 0-8.533 1.28-12.8 3.413-12.373 6.827-16.64 22.613-9.387 34.987l121.6 212.907c6.827 12.373 22.613 16.64 34.987 9.387 12.373-6.827 16.64-22.613 9.387-34.987l-121.173-212.907c-4.693-8.107-13.227-12.8-22.187-12.8h-0.427zM517.060 716.372c-4.267 0-8.533 1.28-12.8 3.413-12.373 6.827-16.64 22.613-9.387 34.987l85.333 149.76c6.827 12.373 22.613 16.64 34.987 9.387 12.373-6.827 16.64-22.613 9.387-34.987l-85.333-149.76c-4.693-8.107-13.227-12.8-22.187-12.8z" />
<glyph unicode="&#xe91d;" glyph-name="chart" d="M366.836 850.342c6.126-14.038-0.288-30.385-14.326-36.511-59.725-26.063-112.156-66.36-152.71-117.367s-67.994-111.173-79.924-175.235c-11.93-64.064-7.984-130.074 11.491-192.26s53.887-118.652 100.227-164.467c46.34-45.815 103.198-79.578 165.603-98.342s128.453-21.956 192.376-9.297c63.923 12.663 123.772 40.789 174.31 81.92 50.543 41.135 90.24 94.025 115.618 154.044 5.965 14.106 22.238 20.706 36.343 14.741 14.11-5.965 20.71-22.238 14.741-36.348-28.907-68.361-74.121-128.602-131.691-175.454-57.566-46.852-125.734-78.891-198.545-93.312s-148.045-10.786-219.125 10.586c-71.081 21.376-135.844 59.836-188.627 112.017-52.783 52.186-91.98 116.506-114.163 187.337s-26.677 146.018-13.088 218.991c13.588 72.969 44.844 141.499 91.037 199.599s105.913 103.999 173.942 133.686c14.038 6.126 30.385-0.288 36.511-14.326zM492.454 894.278c5.201 5.201 12.258 8.123 19.614 8.123 59.669 0 118.758-11.753 173.888-34.589 55.134-22.836 105.225-56.306 147.418-98.502 42.197-42.195 75.669-92.288 98.505-147.418s34.59-114.219 34.59-173.892c0-15.317-12.42-27.733-27.733-27.733h-426.667c-15.317 0-27.733 12.416-27.733 27.733v426.668c0 7.356 2.918 14.41 8.119 19.61zM539.802 845.969v-370.236h370.231c-2.987 42.897-12.898 85.093-29.402 124.933-20.045 48.401-49.434 92.379-86.477 129.423s-81.024 66.43-129.421 86.478c-39.842 16.502-82.035 26.412-124.932 29.402z" />
<glyph unicode="&#xe91e;" glyph-name="check" d="M929.741 781.313c11.499-11.078 11.947-29.491 1.003-41.128l-547.151-581.819c-5.424-5.769-12.948-9.033-20.816-9.033s-15.391 3.264-20.816 9.033l-248.705 264.465c-10.944 11.635-10.496 30.050 1.001 41.126s29.687 10.624 40.631-1.011l227.889-242.33 526.336 559.683c10.94 11.637 29.133 12.090 40.627 1.013z" />
<glyph unicode="&#xe91f;" glyph-name="copy-link" d="M551.812 799.907c41.677 40.253 97.498 62.526 155.435 62.022 57.941-0.503 113.365-23.743 154.334-64.714 40.973-40.971 64.213-96.395 64.717-154.335s-21.769-113.758-62.025-155.435l-0.307-0.32-117.333-117.325c0-0.004 0.004 0 0 0-22.4-22.409-49.361-39.744-79.049-50.816-29.687-11.076-61.414-15.637-93.018-13.372-31.607 2.261-62.357 11.298-90.163 26.492-27.81 15.189-52.023 36.186-71.003 61.559-8.41 11.243-6.113 27.174 5.13 35.584s27.175 6.114 35.584-5.129c14.613-19.537 33.254-35.699 54.665-47.398 21.41-11.695 45.086-18.654 69.419-20.395s48.759 1.766 71.616 10.295c22.857 8.525 43.614 21.871 60.864 39.121l117.175 117.175c30.895 32.073 47.987 74.983 47.603 119.52-0.388 44.608-18.283 87.28-49.826 118.824s-74.214 49.437-118.822 49.824c-44.553 0.387-87.471-16.716-119.548-47.629l-67.136-66.746c-9.954-9.899-26.052-9.852-35.951 0.105s-9.852 26.054 0.107 35.953l67.533 67.137zM356.221 577.017c29.689 11.075 61.412 15.635 93.020 13.371 31.603-2.263 62.353-11.298 90.163-26.49 27.806-15.193 52.019-36.188 71.002-61.562 8.41-11.243 6.114-27.174-5.133-35.584-11.243-8.41-27.174-6.114-35.584 5.129-14.613 19.537-33.254 35.699-54.665 47.398-21.41 11.695-45.082 18.652-69.419 20.395-24.333 1.743-48.757-1.768-71.615-10.296-22.858-8.525-43.614-21.867-60.862-39.121l-117.175-117.175c-30.897-32.073-47.991-74.982-47.604-119.518 0.388-44.608 18.281-87.283 49.824-118.827s74.216-49.434 118.824-49.822c44.537-0.388 87.447 16.704 119.519 47.603l66.718 66.718c9.929 9.929 26.022 9.929 35.951 0s9.929-26.022 0-35.951l-67.191-67.196c-41.677-40.252-97.498-62.524-155.438-62.020s-113.364 23.744-154.335 64.717c-40.971 40.973-64.211 96.397-64.715 154.334-0.503 57.941 21.77 113.758 62.023 155.435l0.307 0.32 117.333 117.329c-0.001-0.004 0.001 0 0 0 22.402 22.407 49.363 39.739 79.051 50.813z" />
<glyph unicode="&#xe920;" glyph-name="coupon" d="M155.4 700.934c-15.623 0-28.267-12.643-28.267-28.267v-140.666c0-15.317-12.417-27.733-27.733-27.733s-27.733 12.416-27.733 27.733v140.666c0 46.257 37.477 83.733 83.733 83.733h670.665c46.259 0 83.733-37.477 83.733-83.733v-140.666c0-15.317-12.416-27.733-27.733-27.733-15.313 0-27.733 12.416-27.733 27.733v140.666c0 15.623-12.642 28.267-28.267 28.267h-670.665zM99.4 391.735c15.316 0 27.733-12.416 27.733-27.733v-140.668c0-15.625 12.643-28.267 28.267-28.267h670.665c15.625 0 28.267 12.642 28.267 28.267v140.668c0 15.317 12.42 27.733 27.733 27.733 15.317 0 27.733-12.416 27.733-27.733v-140.668c0-46.255-37.474-83.733-83.733-83.733h-670.665c-46.257 0-83.733 37.478-83.733 83.733v140.668c0 15.317 12.416 27.733 27.733 27.733zM71.667 532.002c0 15.316 12.416 27.732 27.733 27.732 61.692 0 111.733-50.042 111.733-111.734s-50.042-111.731-111.733-111.731c-15.317 0-27.733 12.416-27.733 27.733s12.416 27.733 27.733 27.733c31.058 0 56.267 25.207 56.267 56.265 0 31.061-25.208 56.269-56.267 56.269-15.317 0-27.733 12.416-27.733 27.733zM770.334 448c0 61.692 50.039 111.734 111.731 111.734 15.317 0 27.733-12.416 27.733-27.732s-12.416-27.733-27.733-27.733c-31.057 0-56.265-25.207-56.265-56.269 0-31.057 25.207-56.265 56.265-56.265 15.317 0 27.733-12.416 27.733-27.733s-12.416-27.733-27.733-27.733c-61.692 0-111.731 50.039-111.731 111.731zM280.733 742.401c15.316 0 27.733-12.416 27.733-27.733v-544.001c0-15.317-12.417-27.733-27.733-27.733s-27.733 12.416-27.733 27.733v544.001c0 15.317 12.416 27.733 27.733 27.733z" />
<glyph unicode="&#xe921;" glyph-name="cross" d="M879.458 815.482c14.443-14.441 14.443-37.854 0-52.294l-682.666-682.667c-14.441-14.438-37.854-14.438-52.295 0-14.441 14.443-14.441 37.854 0 52.297l682.669 682.665c14.438 14.441 37.854 14.441 52.292 0zM144.497 815.482c14.441 14.441 37.854 14.441 52.295 0l682.666-682.665c14.443-14.443 14.443-37.854 0-52.297-14.438-14.438-37.854-14.438-52.292 0l-682.669 682.667c-14.441 14.441-14.441 37.853 0 52.294z" />
<glyph unicode="&#xe922;" glyph-name="direct" d="M512 842.667c-217.968 0-394.667-176.698-394.667-394.667 0-217.967 176.698-394.667 394.667-394.667 217.967 0 394.667 176.7 394.667 394.667 0 217.968-176.7 394.667-394.667 394.667zM53.333 448c0 253.315 205.352 458.667 458.667 458.667s458.667-205.352 458.667-458.667c0-253.316-205.35-458.667-458.667-458.667-253.315 0-458.667 205.35-458.667 458.667zM715.61 651.533c8.567-8.57 11.563-21.248 7.731-32.747l-90.453-271.36c-3.187-9.557-10.684-17.054-20.241-20.237l-271.36-90.453c-11.499-3.836-24.176-0.841-32.747 7.727-8.571 8.572-11.564 21.248-7.73 32.747l90.453 271.362c3.185 9.555 10.683 17.053 20.239 20.239l271.361 90.453c11.499 3.833 24.175 0.84 32.747-7.73zM446.921 513.152l-65.157-195.465 195.465 65.156 65.156 195.465-195.465-65.157z" />
<glyph unicode="&#xe923;" glyph-name="device" d="M181.092 804.288h607.102c14.985 0 27.127-12.144 27.127-27.125v-149.029h-132.685c-45.615 0-82.59-36.977-82.59-82.592v-190.286h-415.181c-8.446 0-16.524 3.456-22.354 9.566-5.485 5.747-8.545 13.389-8.545 21.333v391.008c0 14.98 12.145 27.125 27.126 27.125zM870.788 628.134v149.029c0 45.615-36.979 82.592-82.594 82.592h-607.102c-45.616 0-82.592-36.979-82.592-82.592v-391.008c0-22.208 8.553-43.558 23.884-59.622 16.297-17.079 38.875-26.743 62.482-26.743h277.969v-80.055h-121.602c-15.317 0-27.733-12.416-27.733-27.733s12.416-27.733 27.733-27.733h258.813v-57.596c0-45.615 36.979-82.594 82.59-82.594h219.439c45.615 0 82.59 36.979 82.59 82.594v438.871c0 45.615-36.975 82.592-82.59 82.592h-31.287zM600.047 219.733h-81.745v80.055h81.745v-80.055zM682.637 572.667h219.439c14.98 0 27.123-12.144 27.123-27.126v-438.871c0-14.985-12.143-27.127-27.123-27.127h-219.439c-14.98 0-27.123 12.147-27.123 27.127v438.871c0 14.982 12.143 27.126 27.123 27.126zM697.545 149.338c0-15.317 12.416-27.733 27.733-27.733h132.267c15.317 0 27.733 12.416 27.733 27.733s-12.416 27.733-27.733 27.733h-132.267c-15.317 0-27.733-12.416-27.733-27.733z" />
<glyph unicode="&#xe924;" glyph-name="goal" d="M559.010 198.827c-23.893 0-48.213 3.84-71.68 11.52-54.187 17.493-98.986 54.613-127.146 104.533-7.68 13.227-2.987 30.293 10.667 37.973 13.227 7.68 30.293 2.56 37.973-10.667 21.332-37.547 55.039-65.707 95.999-78.933 90.88-29.44 188.587 20.053 218.453 110.507 29.867 90.88-19.627 188.585-110.507 218.452-44.373 14.933-92.587 10.667-134.827-11.52-13.653-7.253-30.293-1.707-37.547 11.947s-1.707 30.293 11.947 37.547c55.893 29.013 119.040 34.56 177.92 14.933 119.467-39.253 184.747-168.532 145.92-288.425-18.773-58.027-59.307-104.96-113.92-132.693-32.427-16.213-67.413-24.747-102.827-24.747l-0.427-0.427zM556.774 25.173c-42.24 0-84.907 6.827-126.293 20.48-126.72 41.387-224.427 143.36-261.547 272.213-4.267 14.507 4.267 30.293 18.773 34.133 14.507 4.267 30.293-4.267 34.133-18.773 32-111.36 116.48-199.253 225.707-235.093 88.32-29.013 182.613-21.76 265.387 20.053s144.64 113.493 173.227 201.813c59.733 182.187-39.68 378.881-221.44 439.041-114.773 37.547-238.934 13.653-332.374-64.427-11.52-9.813-29.013-8.533-39.253 3.413-9.813 11.52-8.107 29.44 3.413 39.253 108.8 90.453 252.587 118.187 385.707 74.24 210.773-69.547 325.973-297.815 256.853-509.015-33.28-102.4-104.96-185.6-200.96-234.24-57.173-29.013-119.040-43.52-181.333-43.52v0.427zM260.686 384c-2.987 0-5.973 0.427-8.533 1.28l-190.293 62.293c-10.667 3.413-17.92 12.8-18.773 23.893s4.693 21.333 14.080 26.88l106.667 59.309-50.773 110.933c-4.693 10.24-2.56 21.76 4.693 29.867s18.773 11.093 29.44 7.68l190.72-62.72c7.253-2.56 13.227-7.68 16.64-14.933l61.013-133.975c5.547-11.947 1.707-26.453-8.96-34.133-2.56-1.707-5.12-2.987-7.68-3.84l-124.16-69.12c-4.267-2.133-8.96-3.413-13.653-3.413h-0.427zM139.513 480.853l118.187-38.827 96 53.333-45.227 99.415-118.613 39.253 34.987-76.373c5.973-13.227 0.853-28.589-11.947-35.842l-73.387-40.96zM566.588 406.187c-2.987 0-5.973 0.427-8.533 1.28l-364.801 119.467c-14.507 4.693-22.613 20.479-17.92 34.985s20.48 22.613 34.987 17.92l364.375-119.465c14.507-4.693 22.613-20.48 17.92-34.987-3.84-11.52-14.507-19.2-26.453-19.2h0.427z" />
<glyph unicode="&#xe925;" glyph-name="heart" d="M512.004 71.202c-8.414-0.077-16.755 1.553-24.521 4.783-7.77 3.23-14.801 8-20.681 14.016l-332.4 332.399c-23.072 23.010-41.207 50.487-53.298 80.742-12.091 30.26-17.883 62.667-17.022 95.24s8.357 64.628 22.030 94.206c13.673 29.577 33.235 56.055 57.489 77.813 23.277 20.913 50.563 36.874 80.2 46.913s61.006 13.948 92.201 11.487c62.711-4.074 121.761-30.966 166.002-75.6l29.999-29.6 38.4 38c23.010 23.072 50.483 41.207 80.742 53.298s62.665 17.882 95.236 17.021c32.576-0.861 64.631-8.357 94.208-22.030s56.055-33.234 77.811-57.489c20.915-23.277 36.877-50.563 46.916-80.2s13.948-61.006 11.486-92.201c-4.075-62.711-30.967-121.762-75.601-165.999l-323.998-324.002c-5.879-6.016-12.915-10.786-20.681-14.016-7.77-3.23-16.111-4.86-24.521-4.783zM300.003 765.202c-41.739 0.421-82.174-14.528-113.6-42-17.815-15.98-32.185-35.425-42.229-57.148s-15.554-45.265-16.19-69.188c-0.636-23.924 3.613-47.726 12.489-69.954 8.876-22.225 22.191-42.406 39.131-59.311l332.401-332.399 323.998 323.998c70.003 69.602 76.403 182.002 15.202 250.402-15.983 17.815-35.426 32.185-57.148 42.229s-45.265 15.554-69.188 16.19c-23.923 0.637-47.727-3.613-69.952-12.489s-42.406-22.191-59.311-39.131l-60.8-60.8c-6.067-6.009-14.263-9.38-22.801-9.38-8.542 0-16.734 3.371-22.801 9.38l-52.399 52.4c-17.926 18.056-39.235 32.401-62.708 42.216s-48.651 14.906-74.093 14.984z" />
<glyph unicode="&#xe926;" glyph-name="instagram" d="M371.777 588.291c37.207 37.207 87.671 58.11 140.291 58.11 52.617 0 103.083-20.902 140.288-58.11 37.21-37.207 58.112-87.67 58.112-140.291 0-52.617-20.902-103.083-58.112-140.288-37.205-37.21-87.671-58.112-140.288-58.112-52.621 0-103.084 20.902-140.291 58.112-37.207 37.205-58.11 87.671-58.11 140.288 0 52.621 20.903 103.084 58.11 140.291zM512.068 590.934c-37.909 0-74.266-15.059-101.071-41.864s-41.864-63.161-41.864-101.070c0-37.909 15.059-74.261 41.864-101.069 26.805-26.803 63.162-41.865 101.071-41.865 37.905 0 74.261 15.061 101.069 41.865 26.803 26.807 41.865 63.159 41.865 101.069s-15.061 74.266-41.865 101.070c-26.807 26.805-63.164 41.864-101.069 41.864zM341.4 804.268c-49.224 0-96.432-19.554-131.239-54.361s-54.361-82.015-54.361-131.239v-341.334c0-49.225 19.554-96.431 54.361-131.238s82.015-54.362 131.239-54.362h341.335c49.225 0 96.431 19.554 131.238 54.362s54.362 82.014 54.362 131.238v341.334c0 49.225-19.554 96.433-54.362 131.239s-82.014 54.361-131.238 54.361h-341.335zM170.94 789.128c45.209 45.209 106.525 70.607 170.46 70.607h341.335c63.932 0 125.248-25.398 170.458-70.607s70.609-106.525 70.609-170.46v-341.334c0-63.932-25.399-125.248-70.609-170.458s-106.526-70.609-170.458-70.609h-341.335c-63.935 0-125.251 25.399-170.46 70.609s-70.607 106.526-70.607 170.458v341.334c0 63.935 25.398 125.251 70.607 170.46zM765.815 703.23c11.332-10.304 12.169-27.843 1.865-39.177l-0.427-0.469c-10.304-11.334-27.84-12.169-39.177-1.865-11.332 10.303-12.169 27.843-1.865 39.177l0.427 0.469c10.304 11.333 27.844 12.169 39.177 1.865z" />
<glyph unicode="&#xe927;" glyph-name="linkedin" d="M916.501 21.513h-173.286c-12.258 0-22.161 10.334-22.161 23.125v291.217c0 99.878-49.37 99.878-65.655 99.878-43.827 0-62.464-36.096-68.51-51.691-2.854-7.010-4.198-18.923-4.198-35.571v-304.009c0-12.791-9.907-23.13-22.161-23.13h-173.455c-5.877 0-11.586 2.453-15.784 6.831-4.198 4.382-6.548 10.342-6.381 16.474 0 4.907 2.351 493.248 0 543.186-0.336 6.308 1.847 12.441 6.045 16.997s9.907 7.185 16.119 7.185h173.456c12.254 0 22.161-10.337 22.161-23.128v-13.667c29.218 27.159 71.364 49.588 134.165 49.588 138.863 0 221.811-100.227 221.811-268.087v-312.073c0-12.791-9.907-23.125-22.165-23.125zM765.38 67.767l129.126 0.004v288.939c0 141.056-64.644 221.831-177.485 221.831-75.392 0-111.996-39.25-135.002-75.168-2.688-9.463-11.251-16.474-21.325-16.474h-1.173c-8.064 0-15.45 4.557-19.311 11.917-3.021 5.781-3.695 12.442-1.681 18.573v48.535h-128.788c1.175-96.548 0-408.97-0.336-497.981h128.957v280.708c0 23.3 2.351 40.124 7.386 52.915 19.482 50.287 60.45 80.602 109.483 80.602 69.85 0 109.982-53.269 109.982-146.133v-268.267h0.166zM291.196 21.513h-173.455c-12.257 0-22.164 10.338-22.164 23.13v544.236c0 12.791 9.906 23.129 22.164 23.129h173.455c12.258 0 22.164-10.338 22.164-23.128v-544.237c0-12.791-9.906-23.13-22.164-23.13v0zM139.907 67.772h129.124v497.979h-129.123v-497.979h-0.001zM204.552 640.044l-1.176 0.001c-68.341 0-118.043 49.412-118.043 117.398 0 67.811 50.542 117.224 120.393 117.224 68.676 0 117.708-48.010 119.052-116.698 0-68.512-50.542-117.925-120.226-117.925zM205.727 828.233c-45.504 0-76.064-28.561-76.064-70.966 0-41.702 30.225-70.964 73.714-70.964h1.174c45.337 0 75.897 28.561 75.897 70.965-0.84 42.929-30.224 70.965-74.722 70.965z" />
<glyph unicode="&#xe928;" glyph-name="location" d="M512.068 811.377c-77.517 0-151.855-30.792-206.665-85.603s-85.603-129.15-85.603-206.666c0-113.297 73.503-222.089 152.4-305.37 38.881-41.041 77.857-74.611 107.143-97.933 13.239-10.543 24.457-18.957 32.725-24.977 8.265 6.020 19.482 14.434 32.721 24.977 29.286 23.322 68.262 56.892 107.145 97.933 78.895 83.281 152.401 192.073 152.401 305.37 0 77.516-30.793 151.855-85.606 206.666-54.81 54.811-129.148 85.603-206.66 85.603zM512.068 56.887c-15.386-23.074-15.394-23.070-15.403-23.066l-0.090 0.064-1.011 0.678c-0.67 0.461-1.638 1.122-2.884 1.98-2.483 1.724-6.071 4.241-10.603 7.514-9.058 6.545-21.909 16.111-37.286 28.356-30.714 24.457-71.739 59.776-112.858 103.177-81.103 85.611-167.6 207.927-167.6 343.518 0 92.227 36.636 180.674 101.849 245.887s153.66 101.849 245.886 101.849c92.224 0 180.672-36.636 245.884-101.849s101.85-153.66 101.85-245.887c0-135.59-86.498-257.907-167.603-343.518-41.118-43.401-82.142-78.72-112.858-103.177-15.377-12.245-28.228-21.811-37.286-28.356-4.531-3.273-8.119-5.79-10.603-7.514-1.242-0.858-2.21-1.519-2.884-1.98l-0.785-0.529-0.226-0.149-0.068-0.047c-0.009-0.004-0.038-0.026-15.42 23.049zM512.068 56.887l15.381-23.074c-9.314-6.212-21.466-6.199-30.784 0.009l15.403 23.066zM512.068 598.044c-43.597 0-78.933-35.34-78.933-78.931 0-43.597 35.337-78.933 78.933-78.933 43.593 0 78.933 35.337 78.933 78.933 0 43.592-35.341 78.931-78.933 78.931zM377.667 519.113c0 74.225 60.175 134.398 134.402 134.398s134.4-60.173 134.4-134.398c0-74.227-60.173-134.4-134.4-134.4s-134.402 60.173-134.402 134.4z" />
<glyph unicode="&#xe929;" glyph-name="magnet" d="M416.666 799.267c59.212 59.212 139.523 92.477 223.261 92.477s164.049-33.265 223.262-92.477c59.209-59.212 92.476-139.522 92.476-223.261s-33.267-164.047-92.476-223.26l-39.223 39.219c48.811 48.811 76.233 115.012 76.233 184.041s-27.422 135.229-76.233 184.040c-48.811 48.81-115.012 76.232-184.038 76.232-69.030 0-135.228-27.421-184.038-76.232l-39.223 39.221zM552.666 663.651c23.27 22.892 54.639 35.663 87.283 35.53 32.64-0.133 63.906-13.158 86.989-36.24 23.078-23.081 36.105-54.348 36.237-86.989 0.137-32.641-12.638-64.012-35.529-87.283l-39.539 38.903c12.629 12.836 19.678 30.144 19.605 48.154-0.077 18.009-7.262 35.259-19.998 47.994-12.732 12.734-29.982 19.921-47.991 19.994s-35.319-6.973-48.158-19.603l-38.899 39.539zM68.333 320c0 15.317 12.417 27.733 27.733 27.733h96c15.317 0 27.733-12.416 27.733-27.733s-12.416-27.733-27.733-27.733h-96c-15.316 0-27.733 12.416-27.733 27.733zM267.917 203.853c10.831-10.833 10.831-28.39 0-39.223l-67.88-67.878c-10.831-10.829-28.39-10.829-39.221 0s-10.831 28.39 0 39.219l67.88 67.883c10.831 10.829 28.39 10.829 39.221 0zM384.067 155.733c15.317 0 27.733-12.416 27.733-27.733v-96c0-15.317-12.416-27.733-27.733-27.733s-27.733 12.416-27.733 27.733v96c0 15.317 12.417 27.733 27.733 27.733zM277.921 582.076l96.566-96.581-48.273-48.269c0 0 0 0 0 0-6.801-6.797-16.024-10.615-25.64-10.615-9.617 0-18.86 3.84-25.661 10.637l-45.333 45.235c0.004-0.004-0.004 0.004 0 0-3.363 3.362-6.031 7.36-7.852 11.755-1.823 4.399-2.761 9.118-2.761 13.879s0.938 9.481 2.761 13.879c1.823 4.399 4.496 8.401 7.864 11.767 0 0 0 0 0 0l48.329 48.312zM317.149 621.29l138.8 138.753-39.212 39.228-226.36-226.28c-8.52-8.518-15.28-18.633-19.892-29.764s-6.985-23.060-6.985-35.109c0-12.049 2.374-23.979 6.985-35.11s11.37-21.244 19.891-29.764l45.34-45.239c-0.001 0.004 0.001 0 0 0 17.202-17.195 40.534-26.859 64.858-26.859 24.326 0 47.655 9.66 64.858 26.859l226.282 226.263-39.219 39.223-138.786-138.774-96.561 96.576zM549.508 310.477l-48.29-48.307c-3.371-3.366-6.046-7.373-7.872-11.772-1.822-4.399-2.761-9.118-2.761-13.879 0-4.766 0.939-9.481 2.761-13.884 1.826-4.399 4.497-8.397 7.868-11.763l45.244-45.265c0 0 0 0 0 0 3.366-3.371 7.364-6.042 11.767-7.863 4.399-1.826 9.114-2.765 13.879-2.765 4.762 0 9.481 0.939 13.879 2.765 4.399 1.822 8.397 4.493 11.767 7.859 0 0 0 0.004 0 0l48.311 48.333-96.555 96.542zM588.719 349.705l96.559-96.542 138.752 138.803 39.228-39.215-226.278-226.359c-8.521-8.521-18.637-15.283-29.764-19.895-11.132-4.608-23.061-6.985-35.11-6.985s-23.979 2.377-35.11 6.985c-11.132 4.612-21.244 11.371-29.764 19.891l-45.235 45.257c-8.521 8.521-15.279 18.633-19.891 29.764-4.608 11.132-6.985 23.061-6.985 35.11 0 12.045 2.377 23.979 6.985 35.106 4.612 11.132 11.371 21.248 19.891 29.764l226.257 226.334 39.228-39.211-138.761-138.807z" />
<glyph unicode="&#xe92a;" glyph-name="megaphone" d="M952 480c-0.051 48.785-19.456 95.555-53.948 130.051-34.496 34.495-81.267 53.898-130.052 53.951h-159.398c-10.321 0.56-216.4 14.24-412.6 178.8-8.16 6.848-18.103 11.226-28.663 12.622s-21.3-0.25-30.958-4.743c-9.658-4.493-17.835-11.648-23.57-20.625s-8.791-19.403-8.809-30.055v-640.001c-0.072-10.662 2.935-21.12 8.661-30.118s13.927-16.149 23.619-20.599c7.432-3.456 15.525-5.257 23.72-5.282 13.186-0.009 25.945 4.672 36 13.201 160 134.080 326.281 168 387.999 176.282v-136c0-9.22 2.27-18.295 6.618-26.428 4.348-8.128 10.637-15.057 18.304-20.173l43.998-29.321c7.445-4.958 15.966-8.060 24.849-9.045 8.887-0.99 17.882 0.162 26.231 3.362s15.812 8.354 21.76 15.027c5.952 6.673 10.219 14.677 12.442 23.334l48.521 182.839c45.278 4.693 87.215 25.98 117.73 59.755 30.519 33.775 47.454 77.649 47.548 123.166zM165.161 153.92c-1.163-0.981-2.582-1.609-4.090-1.813s-3.043 0.026-4.425 0.666c-1.382 0.64-2.553 1.66-3.375 2.94s-1.263 2.769-1.269 4.288v640.001c-0.043 1.523 0.372 3.024 1.193 4.308s2.007 2.292 3.407 2.892c1.064 0.504 2.223 0.777 3.4 0.8 1.858-0.006 3.649-0.689 5.040-1.92 176-147.68 356-180.76 418.839-188v-276.001c-62.72-7.398-242.679-40.521-418.719-188.16zM691.721 125.922c-0.311-1.246-0.913-2.398-1.762-3.358s-1.916-1.707-3.115-2.167c-1.195-0.465-2.483-0.631-3.759-0.491s-2.496 0.585-3.563 1.297l-44.002 29.316c-1.097 0.734-1.997 1.728-2.62 2.893-0.619 1.169-0.943 2.47-0.939 3.789v138.799h104.798l-45.039-170.078zM768 344h-136v272.001h136c36.070 0 70.665-14.328 96.166-39.833 25.506-25.505 39.834-60.098 39.834-96.168 0-36.066-14.327-70.66-39.834-96.166-25.502-25.502-60.096-39.834-96.166-39.834z" />
<glyph unicode="&#xe92b;" glyph-name="member" d="M264.153 650.787c-34.044-35.004-34.044-91.758 0-126.764 34.045-35.004 89.242-35.004 123.286 0 34.045 35.006 34.045 91.76 0 126.764s-89.242 35.005-123.286 0zM225.481 484.262c-55.402 56.965-55.402 149.323 0 206.287s145.228 56.965 200.63 0c55.404-56.965 55.404-149.323 0-206.287-55.402-56.964-145.227-56.964-200.63 0zM320.067 377.6c-112.064 0-206.933-99.878-206.933-228.267 0-15.317-12.416-27.733-27.733-27.733s-27.733 12.416-27.733 27.733c0 154.381 115.258 283.733 262.4 283.733s262.402-129.353 262.402-283.733c0-15.317-12.42-27.733-27.733-27.733-15.317 0-27.733 12.416-27.733 27.733 0 128.388-94.869 228.267-206.935 228.267zM684.211 755.863c-46.647-7.786-79.514-53.389-71.659-103.137 7.851-49.748 53.060-82.32 99.708-74.534 46.652 7.785 79.518 53.388 71.663 103.137-7.851 49.748-53.060 82.32-99.712 74.534zM557.841 643.595c-12.416 78.636 39.509 154.002 117.722 167.056 78.217 13.054 150.656-41.556 163.072-120.191s-39.509-154.002-117.722-167.055c-78.217-13.056-150.656 41.555-163.072 120.19zM697.643 518.4h0.051c149.99 0 268.774-128.627 268.774-283.733 0-15.317-12.42-27.733-27.733-27.733-15.317 0-27.733 12.416-27.733 27.733 0 127.625-96.986 228.203-213.193 228.267l-0.384-0.009c-0.414-0.009-1.122-0.030-2.095-0.081-1.958-0.098-4.971-0.307-8.836-0.73-7.757-0.853-18.773-2.569-31.394-5.995-25.468-6.912-55.945-20.356-80.111-46.195-10.462-11.187-28.011-11.776-39.198-1.31-11.187 10.462-11.776 28.011-1.314 39.198 33.489 35.806 74.492 53.261 106.091 61.837 15.91 4.318 29.824 6.494 39.868 7.599 5.035 0.555 9.135 0.841 12.070 0.99 1.468 0.077 2.65 0.115 3.516 0.137l1.058 0.021 0.346 0.004h0.196c0.013 0 0.021 0 0.073-27.733l-0.051 27.733z" />
<glyph unicode="&#xe92c;" glyph-name="menu" d="M100.333 448c0 15.317 12.417 27.733 27.733 27.733h768.002c15.313 0 27.733-12.416 27.733-27.733s-12.42-27.733-27.733-27.733h-768.002c-15.316 0-27.733 12.416-27.733 27.733zM100.333 704.001c0 15.317 12.417 27.733 27.733 27.733h768.002c15.313 0 27.733-12.416 27.733-27.733s-12.42-27.733-27.733-27.733h-768.002c-15.316 0-27.733 12.417-27.733 27.733zM484.335 192c0 15.317 12.416 27.733 27.733 27.733h384c15.313 0 27.733-12.416 27.733-27.733s-12.42-27.733-27.733-27.733h-384c-15.317 0-27.733 12.416-27.733 27.733z" />
<glyph unicode="&#xe92d;" glyph-name="crm" d="M127.201 832.866c17.204 17.204 40.536 26.868 64.865 26.868h320.002c15.313 0 27.733-12.416 27.733-27.733s-12.42-27.733-27.733-27.733h-320.002c-9.618 0-18.843-3.821-25.644-10.622s-10.622-16.026-10.622-25.645v-469.334c0-9.617 3.821-18.842 10.622-25.643s16.026-10.624 25.644-10.624h640.002c9.617 0 18.842 3.823 25.643 10.624s10.624 16.026 10.624 25.643v106.667c0 15.317 12.416 27.733 27.733 27.733 15.313 0 27.733-12.416 27.733-27.733v-106.667c0-24.329-9.668-47.663-26.871-64.866s-40.533-26.867-64.862-26.867h-292.267v-115.2h185.6c15.313 0 27.733-12.416 27.733-27.733s-12.42-27.733-27.733-27.733h-426.668c-15.316 0-27.733 12.416-27.733 27.733s12.417 27.733 27.733 27.733h185.602v115.2h-292.268c-24.329 0-47.662 9.664-64.865 26.867s-26.868 40.538-26.868 64.866v469.334c0 24.329 9.665 47.662 26.868 64.865zM789.402 718.934c-20.032 0-36.267-16.237-36.267-36.267s16.235-36.267 36.267-36.267c20.028 0 36.267 16.237 36.267 36.267s-16.239 36.267-36.267 36.267zM697.668 682.668c0 50.663 41.071 91.733 91.733 91.733s91.733-41.070 91.733-91.733c0-50.663-41.071-91.733-91.733-91.733s-91.733 41.071-91.733 91.733zM789.393 859.734c15.317 0 27.733-12.416 27.733-27.733v-85.333c0-15.316-12.416-27.733-27.733-27.733s-27.733 12.417-27.733 27.733v85.333c0 15.317 12.416 27.733 27.733 27.733zM636.053 771.201c7.659 13.265 24.619 17.809 37.884 10.151l73.899-42.667c13.265-7.659 17.809-24.62 10.15-37.885s-24.619-17.809-37.884-10.151l-73.899 42.667c-13.265 7.659-17.809 24.62-10.15 37.885zM942.733 771.201c7.659-13.265 3.115-30.226-10.15-37.885l-73.899-42.667c-13.265-7.658-30.225-3.114-37.884 10.151s-3.115 30.226 10.15 37.885l73.899 42.667c13.265 7.658 30.225 3.114 37.884-10.151zM757.986 664.535c7.659-13.265 3.115-30.226-10.15-37.885l-73.899-42.667c-13.265-7.658-30.225-3.114-37.884 10.151s-3.115 30.226 10.15 37.885l73.899 42.667c13.265 7.658 30.225 3.114 37.884-10.151zM820.8 664.535c7.659 13.265 24.619 17.809 37.884 10.151l73.899-42.667c13.265-7.659 17.809-24.62 10.15-37.885s-24.619-17.809-37.884-10.151l-73.899 42.667c-13.265 7.659-17.809 24.62-10.15 37.885zM789.393 646.401c15.317 0 27.733-12.416 27.733-27.733v-85.333c0-15.318-12.416-27.734-27.733-27.734s-27.733 12.416-27.733 27.734v85.333c0 15.317 12.416 27.733 27.733 27.733z" />
<glyph unicode="&#xe92e;" glyph-name="qr-code" d="M113.067 689.067c-15.36 0-27.733 12.373-27.733 27.733v65.28c0 50.773 41.813 92.587 93.013 92.587h65.28c15.36 0 27.733-12.373 27.733-27.733s-12.373-27.733-27.733-27.733h-65.28c-20.48 0-37.547-16.64-37.547-37.547v-65.28c0-15.36-12.373-27.733-27.733-27.733v0.427zM881.126 689.067c-15.36 0-27.733 12.373-27.733 27.733v65.28c0 20.48-16.64 37.547-37.547 37.547h-65.28c-15.36 0-27.733 12.373-27.733 27.733s12.373 27.733 27.733 27.733h65.28c51.2 0 93.013-41.813 93.013-93.013v-65.28c0-15.36-12.373-27.733-27.733-27.733zM815.846 51.204h-65.28c-15.36 0-27.733 12.373-27.733 27.733s12.373 27.733 27.733 27.733h65.28c20.48 0 37.547 16.64 37.547 37.547v65.28c0 15.36 12.373 27.733 27.733 27.733s27.733-12.373 27.733-27.733v-65.28c0-51.2-41.813-93.013-93.013-93.013zM243.127 51.204h-65.28c-51.2 0-93.013 41.813-93.013 93.013v65.28c0 15.36 12.373 27.733 27.733 27.733s27.733-12.373 27.733-27.733v-65.28c0-20.48 16.64-37.547 37.547-37.547h65.28c15.36 0 27.733-12.373 27.733-27.733s-12.373-27.733-27.733-27.733zM366.96 500.48h-65.28c-51.2 0-93.014 41.813-93.014 93.013v65.28c0 51.2 41.814 93.013 93.014 93.013h65.28c51.2 0 93.012-41.813 93.012-93.013v-65.28c0-51.2-41.812-93.013-93.012-93.013zM301.68 695.893c-20.48 0-37.547-16.64-37.547-37.547v-65.28c0-20.48 16.64-37.547 37.547-37.547h65.28c20.48 0 37.547 16.64 37.547 37.547v65.28c0 20.48-16.64 37.547-37.547 37.547h-65.28zM692.459 500.48h-65.28c-51.2 0-93.013 41.813-93.013 93.013v65.28c0 51.2 41.813 93.013 93.013 93.013h65.28c51.2 0 93.013-41.813 93.013-93.013v-65.28c0-51.2-41.813-93.013-93.013-93.013zM627.179 695.893c-20.48 0-37.547-16.64-37.547-37.547v-65.28c0-20.48 16.64-37.547 37.547-37.547h65.28c20.48 0 37.547 16.64 37.547 37.547v65.28c0 20.48-16.64 37.547-37.547 37.547h-65.28zM366.96 174.933h-65.28c-51.2 0-93.014 41.813-93.014 93.013v65.28c0 51.2 41.814 93.013 93.014 93.013h65.28c51.2 0 93.012-41.813 93.012-93.013v-65.28c0-51.2-41.812-93.013-93.012-93.013zM301.68 370.347c-20.48 0-37.547-16.64-37.547-37.547v-65.28c0-20.48 16.64-37.547 37.547-37.547h65.28c20.48 0 37.547 16.64 37.547 37.547v65.28c0 20.48-16.64 37.547-37.547 37.547h-65.28zM692.531 174.933h-130.129c-15.36 0-27.738 12.373-27.738 27.733s12.378 27.733 27.738 27.733h130.129c20.48 0 37.547 16.64 37.547 37.547v130.133c0 15.36 12.378 27.733 27.738 27.733s27.733-12.373 27.733-27.733v-130.133c0-51.2-41.818-93.013-93.018-93.013zM627.179 369.92h-65.28c-15.36 0-27.733 12.373-27.733 27.733s12.373 27.733 27.733 27.733h65.28c15.36 0 27.733-12.373 27.733-27.733s-12.373-27.733-27.733-27.733zM627.234 174.938c-15.36 0-27.733 12.373-27.733 27.733v65.28c0 15.36 12.373 27.733 27.733 27.733s27.733-12.373 27.733-27.733v-65.28c0-15.36-12.373-27.733-27.733-27.733z" />
<glyph unicode="&#xe92f;" glyph-name="rect-transfer" d="M793.882 390.4c15.317 0 27.733-12.416 27.733-27.733 0-89.715-72.751-162.47-162.47-162.47h-471.578c-15.316 0-27.733 12.416-27.733 27.733s12.417 27.733 27.733 27.733h471.578c59.085 0 107.004 47.923 107.004 107.004 0 15.317 12.416 27.733 27.733 27.733zM341.914 382.276c10.831-10.829 10.831-28.39 0-39.219l-134.737-134.737c-10.831-10.829-28.39-10.829-39.221 0-10.831 10.833-10.831 28.39 0 39.219l134.737 134.737c10.831 10.833 28.39 10.833 39.221 0zM167.956 247.548c10.831 10.833 28.39 10.833 39.221 0l134.737-134.737c10.831-10.829 10.831-28.39 0-39.219s-28.39-10.829-39.221 0l-134.737 134.737c-10.831 10.829-10.831 28.39 0 39.219zM322.304 652.674c-59.084 0-107.004-47.92-107.004-107.004 0-15.315-12.416-27.731-27.733-27.731s-27.733 12.416-27.733 27.731c0 89.717 72.753 162.47 162.47 162.47h471.578c15.317 0 27.733-12.417 27.733-27.733s-12.416-27.733-27.733-27.733h-471.578zM813.581 700.018c10.829-10.831 10.829-28.39 0-39.221l-134.737-134.738c-10.829-10.829-28.39-10.829-39.219 0-10.833 10.832-10.833 28.392 0 39.222l134.737 134.737c10.829 10.831 28.39 10.831 39.219 0zM639.625 834.757c10.829 10.831 28.39 10.831 39.219 0l134.737-134.737c10.829-10.831 10.829-28.39 0-39.221s-28.39-10.831-39.219 0l-134.737 134.737c-10.833 10.831-10.833 28.39 0 39.22z" />
<glyph unicode="&#xe930;" glyph-name="rocket" d="M607.953 704.427h-175.787v-55.467h175.787v55.467zM520.068-17.92c-15.36 0-27.733 12.373-27.733 27.733v304.213c0 15.36 12.373 27.733 27.733 27.733s27.733-12.373 27.733-27.733v-304.213c0-15.36-12.373-27.733-27.733-27.733zM604.553 59.307h-168.96c-11.946 0-22.186 7.68-26.026 18.773-2.987 8.533-70.4 207.787-70.4 380.16 0 222.72 153.599 400.213 160.426 407.467 10.667 11.947 31.147 11.947 41.813 0 6.4-7.253 160.427-184.747 160.427-407.467 0-172.8-67.413-371.627-70.4-380.16-3.84-11.093-14.507-18.773-26.027-18.773h-0.853zM455.646 114.773h128.427c16.64 53.333 61.44 209.493 61.44 343.467 0 154.88-85.333 289.28-125.867 344.32-40.533-55.040-125.866-189.867-125.866-344.32 0-133.973 44.799-290.133 61.439-343.467h0.427zM283.733-9.809c0 0-1.707 0-2.987 0-14.080 1.28-24.747 13.227-24.747 27.307v202.667c0 7.253 2.987 14.507 8.107 19.627l93.44 93.44 39.253-39.253-85.333-85.333v-81.067c20.48 23.467 47.787 45.653 84.907 62.293l22.187-50.773c-88.32-38.827-107.093-123.733-107.947-127.147-2.56-12.8-14.080-22.187-27.307-22.187l0.427 0.427zM756.42-9.818c-13.227 0-24.747 9.387-27.307 22.187-0.853 3.413-19.627 88.32-107.947 127.147l22.187 50.773c37.12-16.213 64.427-38.827 84.907-62.293v81.067l-85.333 85.333 39.253 39.253 93.44-93.44c5.12-5.12 8.107-12.373 8.107-19.627v-202.667c0-14.080-10.667-26.027-25.173-27.733-0.853 0-1.707 0-2.56 0h0.427z" />
<glyph unicode="&#xe931;" glyph-name="scan" d="M100.333 832.001c0 15.317 12.417 27.733 27.733 27.733h192c15.317 0 27.733-12.416 27.733-27.733s-12.416-27.733-27.733-27.733h-164.267v-164.267c0-15.316-12.416-27.733-27.733-27.733s-27.733 12.417-27.733 27.733v192zM128.067 283.733c15.317 0 27.733-12.416 27.733-27.733v-164.267h164.267c15.317 0 27.733-12.416 27.733-27.733s-12.416-27.733-27.733-27.733h-192c-15.316 0-27.733 12.416-27.733 27.733v192c0 15.317 12.417 27.733 27.733 27.733zM896.068 283.733c15.313 0 27.733-12.416 27.733-27.733v-192c0-15.317-12.42-27.733-27.733-27.733h-192c-15.317 0-27.733 12.416-27.733 27.733s12.416 27.733 27.733 27.733h164.267v164.267c0 15.317 12.416 27.733 27.733 27.733zM676.335 832.001c0 15.317 12.416 27.733 27.733 27.733h192c15.313 0 27.733-12.416 27.733-27.733v-192c0-15.316-12.42-27.733-27.733-27.733-15.317 0-27.733 12.417-27.733 27.733v164.267h-164.267c-15.317 0-27.733 12.417-27.733 27.733zM185.667 448c0 15.317 12.417 27.733 27.733 27.733h597.335c15.313 0 27.733-12.416 27.733-27.733s-12.42-27.733-27.733-27.733h-597.335c-15.316 0-27.733 12.416-27.733 27.733z" />
<glyph unicode="&#xe932;" glyph-name="search" d="M473.011 805.549c84.25-0.183 164.975-33.825 224.418-93.527s92.736-140.573 92.557-224.824c-0.183-83.81-33.476-164.134-92.599-223.492-0.26-0.239-0.516-0.482-0.764-0.73-0.273-0.273-0.538-0.546-0.798-0.823-59.639-59.051-140.237-92.109-224.192-91.93-84.248 0.183-164.974 33.826-224.419 93.53-59.444 59.699-92.738 140.57-92.556 224.819 0.183 84.251 33.825 164.977 93.527 224.422s140.573 92.738 224.825 92.556zM754.654 243.93c58.185 67.332 90.603 153.545 90.799 243.149 0.213 98.961-38.895 193.952-108.719 264.079s-164.646 109.644-263.603 109.858c-98.961 0.214-193.953-38.892-264.080-108.716s-109.644-164.646-109.858-263.604c-0.214-98.961 38.892-193.954 108.716-264.081s164.646-109.645 263.605-109.858c89.745-0.192 176.226 31.949 243.857 90.014l163.025-164.023c10.795-10.863 28.356-10.918 39.219-0.119s10.918 28.356 0.119 39.219l-163.081 164.083z" />
<glyph unicode="&#xe933;" glyph-name="settings" d="M500.399 315.302c-80.212 0-145.066 65.28-145.066 145.067s64.853 145.068 145.066 145.068 145.067-64.853 145.067-145.068c0-80.213-64.853-145.067-145.067-145.067zM500.399 549.971c-49.493 0-89.599-40.108-89.599-89.602s40.105-89.6 89.599-89.6c49.493 0 89.6 40.107 89.6 89.6s-40.107 89.602-89.6 89.602zM503.893 2.56c-28.16 0-55.040 11.093-75.093 31.147-19.627 19.627-31.147 46.933-31.147 75.093 0 10.24-2.56 17.493-6.827 23.467s-10.24 10.667-17.067 13.227c-8.533 3.413-15.787 4.693-23.040 2.987-7.253-1.28-14.080-4.693-19.2-9.813-11.947-11.947-23.467-19.627-36.267-25.173-26.027-10.667-55.040-10.667-81.067 0-13.227 5.547-24.747 13.227-34.56 23.040s-17.493 21.333-23.040 34.133c-5.547 12.8-8.107 26.453-8.107 40.533s2.56 27.733 8.107 40.533c5.547 12.8 13.227 24.32 23.040 34.56 7.253 7.253 10.667 14.080 11.947 21.333s0.427 14.507-2.56 21.333c-2.987 6.827-7.68 12.373-13.653 16.64-5.973 3.84-12.8 5.973-20.053 5.973h-6.4c-28.16 0-55.040 11.093-75.093 31.147-19.627 19.627-31.147 46.933-31.147 75.093s11.093 55.040 31.147 75.093c20.053 20.054 46.507 31.148 75.093 31.148 10.24 0 17.493 2.56 23.467 6.826s10.667 10.24 13.227 17.067c3.413 8.533 4.693 15.787 2.987 23.040-1.28 7.253-4.693 14.080-9.813 19.2-11.947 11.947-19.627 23.467-25.173 36.693-5.12 12.8-8.107 26.453-8.107 40.533s2.56 27.733 8.107 40.533c5.12 12.8 13.227 24.32 23.040 34.56 9.813 9.813 21.333 17.493 34.133 23.040 26.027 10.667 55.467 10.667 81.067 0 12.8-5.547 24.32-13.227 34.56-23.040 7.253-7.253 14.080-10.667 21.333-11.947s14.507 0 21.333 2.56c2.56 0.853 4.693 1.707 7.253 2.133 4.693 2.987 8.96 6.827 12.373 11.52 3.84 5.973 5.973 12.8 5.973 20.053v6.4c0 27.733 11.52 55.040 31.147 75.093 40.107 40.107 109.653 40.107 149.76 0 19.627-19.627 31.147-46.933 31.147-75.093 0-10.667 2.133-17.493 5.973-23.467s9.387-10.667 16.213-13.653c6.827-2.987 14.507-3.84 21.76-2.56s14.080 4.693 19.2 9.813c11.947 11.947 23.467 19.627 36.267 25.173 26.027 10.667 55.467 10.667 81.067 0 12.8-5.547 24.32-13.227 34.56-23.040 9.813-9.813 17.493-21.333 23.040-34.56 5.547-12.8 8.107-26.453 8.107-40.533s-2.56-27.733-8.107-40.533c-5.547-12.8-13.227-24.32-23.040-34.56-7.253-7.253-10.667-14.080-11.947-21.333s-0.427-14.507 2.56-21.333c0.853-2.56 1.707-4.693 2.133-7.253 2.987-4.693 6.827-8.96 11.52-12.373 5.973-3.84 12.8-5.974 20.053-5.974h6.4c28.16 0 55.040-11.093 75.093-31.146 20.053-20.055 31.147-46.508 31.147-75.095s-11.52-55.040-31.147-75.093c-20.053-20.053-46.507-31.147-75.093-31.147-10.667 0-17.493-2.133-23.467-5.973s-10.667-9.387-13.653-16.213c-2.987-6.827-3.84-14.080-2.56-21.333s4.693-13.653 9.813-19.2c11.947-11.947 19.627-23.467 25.173-36.267s8.107-26.453 8.107-40.533c0-14.080-2.56-27.733-8.107-40.533s-13.227-24.32-23.040-34.56c-9.813-9.813-21.333-17.493-34.133-23.040-26.027-10.667-55.040-10.667-81.067 0-13.227 5.547-24.747 13.227-34.56 23.040-7.253 7.253-14.080 10.667-21.333 11.947s-14.507 0-21.333-2.56c-6.827-2.987-12.373-7.68-16.64-13.653-3.84-5.973-5.973-12.8-5.973-20.053v-6.4c0-27.733-11.52-55.040-31.147-75.093-20.053-20.053-46.507-31.147-75.093-31.147l0.427-0.427zM357.547 204.373c12.8 0 25.173-2.56 37.12-7.68 15.787-5.973 30.72-17.067 41.387-32.427 10.667-14.933 16.64-32.853 17.067-51.627 0-17.493 5.547-30.293 14.933-39.68 19.2-19.2 52.48-19.2 71.253 0 9.387 9.387 14.933 22.613 14.933 35.84v6.827c0 17.92 5.547 35.413 15.36 50.773 9.813 14.933 23.893 26.88 40.533 33.707 16.64 7.253 35.413 9.387 53.333 6.4 18.347-3.413 34.987-11.947 48.213-24.747 7.253-7.253 12.8-11.093 19.2-13.653 12.373-5.12 26.027-5.12 38.827 0 5.973 2.56 11.52 6.4 16.213 11.093s8.533 10.24 11.093 16.64c2.56 5.973 3.84 12.8 3.84 19.2s-1.28 13.227-3.84 19.2c-2.56 5.973-6.4 11.52-11.093 16.213-15.36 15.787-24.32 32.427-27.307 50.773-3.413 18.347-1.28 36.693 6.4 53.76 7.253 16.64 18.773 30.293 33.707 40.533 14.933 9.813 32.427 15.36 50.773 15.36 17.067 0 29.867 5.12 39.253 14.933 9.387 9.387 14.933 22.613 14.933 35.84s-5.12 26.027-14.933 35.84c-9.813 9.813-22.187 14.933-35.84 14.933h-6.827c-18.347 0-35.84 5.547-50.773 15.36s-26.88 23.894-33.707 40.534c-1.28 2.56-1.707 5.547-2.133 8.533-5.547 15.36-7.253 32-4.267 48.213 3.413 18.347 11.947 34.987 24.747 48.213 7.253 7.253 11.093 12.8 13.653 18.773s3.84 12.8 3.84 19.2c0 6.4-1.28 13.227-3.84 19.2-2.56 6.4-6.4 11.52-11.093 16.64s-10.24 8.533-16.213 11.093c-12.373 5.12-26.453 5.12-38.827 0-5.973-2.56-11.52-6.4-16.213-11.093-15.787-15.36-32.427-23.893-50.773-27.307s-36.693-1.28-53.76 6.4c-16.213 6.827-30.293 18.773-40.107 33.707s-15.36 32.427-15.36 50.773c0 17.067-5.547 29.867-14.933 39.253-19.2 19.2-52.48 19.2-71.253 0-9.387-9.387-14.933-22.613-14.933-35.84v-6.827c0-18.347-5.547-35.84-15.36-50.773s-23.893-26.88-40.533-33.707c-2.56-1.28-5.547-1.707-8.533-2.133-15.36-5.547-32-6.827-48.213-4.267-18.347 3.413-34.987 11.947-48.213 24.747-7.253 7.253-12.8 11.093-18.773 13.653-12.373 5.12-26.453 5.12-38.827 0-5.973-2.56-11.52-6.4-16.213-11.093s-8.533-10.24-11.093-16.213c-2.56-6.4-3.84-12.8-3.84-19.2s1.28-13.227 3.84-19.2c2.56-6.4 6.4-11.52 11.093-16.213 15.36-15.787 23.893-32.427 27.307-50.773s1.28-36.693-6.4-53.76c-5.973-15.787-17.067-30.72-32.427-41.388-14.933-10.667-32.853-16.64-51.627-17.067-17.493 0-30.293-5.12-40.107-14.933s-14.933-22.187-14.933-35.84c0-13.653 5.547-26.453 14.933-35.84s22.187-14.933 35.84-14.933h6.827c18.347 0 35.84-5.547 50.773-15.36s26.88-23.893 33.707-40.533c7.253-16.64 9.387-35.413 6.4-53.333-3.413-18.347-11.947-34.987-24.747-48.213-7.253-7.253-11.093-12.8-13.653-18.773s-3.84-12.8-3.84-19.2c0-6.4 1.28-13.227 3.84-19.2s6.4-11.52 11.093-16.213c4.693-4.693 10.24-8.533 16.64-11.093 12.373-5.12 26.027-5.12 38.827 0 5.973 2.56 11.52 6.4 16.213 11.093 15.787 15.36 32.427 23.893 50.773 27.307 5.547 0.853 11.093 1.707 16.64 1.707v-2.133z" />
<glyph unicode="&#xe934;" glyph-name="sparkle" d="M787.627 436.241l-206.601 75.998c-1.041 0.397-1.993 1.011-2.782 1.796-0.794 0.785-1.412 1.728-1.818 2.765l-76.002 206.64c-3.938 10.682-11.059 19.9-20.399 26.411s-20.454 10.001-31.842 10.001c-11.383 0-22.496-3.491-31.837-10.001s-16.461-15.728-20.401-26.411l-76-206.602c-0.397-1.041-1.008-1.988-1.793-2.782-0.785-0.789-1.728-1.408-2.767-1.818l-206.64-75.998c-10.683-3.942-19.901-11.063-26.411-20.403s-10.001-20.45-10.001-31.838c0-11.388 3.491-22.498 10.001-31.838s15.728-16.461 26.411-20.403l206.6-75.998c1.042-0.397 1.99-1.011 2.782-1.796s1.411-1.728 1.818-2.765l76-206.639c3.94-10.684 11.060-19.9 20.401-26.411s20.453-10.001 31.837-10.001c11.388 0 22.502 3.49 31.842 10.001s16.461 15.727 20.399 26.411l76.002 206.601c0.397 1.041 1.007 1.988 1.792 2.782 0.785 0.789 1.728 1.408 2.765 1.818l206.643 75.998c10.679 3.942 19.9 11.063 26.411 20.403s10.001 20.45 10.001 31.838c0 11.388-3.49 22.498-10.001 31.838s-15.731 16.461-26.411 20.403zM771.025 376.798l-206.639-75.998c-7.561-2.795-14.43-7.194-20.126-12.898s-10.091-12.578-12.873-20.143l-76.002-206.601c-0.546-1.468-1.527-2.735-2.816-3.631-1.284-0.896-2.816-1.374-4.386-1.374-1.566 0-3.098 0.478-4.382 1.374-1.289 0.896-2.27 2.163-2.816 3.631l-76 206.643c-2.804 7.548-7.203 14.404-12.899 20.1s-12.551 10.095-20.102 12.898l-206.6 75.998c-1.47 0.546-2.737 1.532-3.633 2.816-0.895 1.289-1.375 2.82-1.375 4.386s0.48 3.098 1.375 4.386c0.895 1.284 2.163 2.27 3.633 2.816l206.64 75.998c7.562 2.795 14.428 7.194 20.125 12.898s10.089 12.578 12.875 20.143l75.998 206.599c0.546 1.47 1.527 2.737 2.816 3.633s2.816 1.375 4.386 1.375c1.566 0 3.098-0.48 4.386-1.375 1.284-0.895 2.27-2.163 2.812-3.633l76.002-206.641c2.795-7.561 7.194-14.426 12.898-20.126 5.705-5.696 12.574-10.086 20.143-12.873l206.596-75.998c1.472-0.546 2.739-1.532 3.635-2.816 0.896-1.289 1.374-2.82 1.374-4.386s-0.478-3.098-1.374-4.386c-0.896-1.284-2.163-2.27-3.635-2.816h-0.038zM584.064 800c0 6.365 2.53 12.47 7.031 16.971s10.607 7.029 16.969 7.029h72v72c0 6.365 2.53 12.47 7.031 16.971s10.607 7.029 16.969 7.029c6.366 0 12.471-2.529 16.973-7.029s7.027-10.606 7.027-16.971v-72h72c6.366 0 12.471-2.528 16.973-7.029s7.027-10.606 7.027-16.971c0-6.365-2.526-12.47-7.027-16.971s-10.607-7.029-16.973-7.029h-72v-72c0-6.365-2.526-12.47-7.027-16.971s-10.607-7.029-16.973-7.029c-6.362 0-12.467 2.528-16.969 7.029s-7.031 10.606-7.031 16.971v72h-72c-6.362 0-12.467 2.528-16.969 7.029s-7.031 10.606-7.031 16.971zM984.064 608c0-6.365-2.526-12.47-7.027-16.971s-10.607-7.029-16.973-7.029h-40v-40c0-6.365-2.526-12.471-7.027-16.969-4.501-4.501-10.607-7.031-16.973-7.031-6.362 0-12.467 2.53-16.969 7.031-4.501 4.497-7.031 10.604-7.031 16.969v40h-40c-6.362 0-12.467 2.528-16.969 7.029s-7.031 10.606-7.031 16.971c0 6.365 2.53 12.47 7.031 16.971s10.607 7.029 16.969 7.029h40v40c0 6.365 2.53 12.47 7.031 16.971s10.607 7.029 16.969 7.029c6.366 0 12.471-2.528 16.973-7.029s7.027-10.606 7.027-16.971v-40h40c6.366 0 12.471-2.528 16.973-7.029s7.027-10.606 7.027-16.971z" />
<glyph unicode="&#xe935;" glyph-name="star" d="M512.085 861.766c10.556 0 20.194-5.993 24.866-15.458l119.117-241.315 266.377-38.935c10.441-1.527 19.115-8.848 22.37-18.888s0.529-21.056-7.031-28.42l-192.725-187.716 45.483-265.19c1.783-10.402-2.492-20.919-11.034-27.123-8.542-6.208-19.866-7.023-29.21-2.112l-238.212 125.278-238.217-125.278c-9.344-4.911-20.667-4.096-29.208 2.112-8.541 6.204-12.819 16.721-11.034 27.123l45.484 265.19-192.725 187.716c-7.561 7.364-10.286 18.381-7.031 28.42s11.927 17.361 22.371 18.888l266.376 38.935 119.116 241.315c4.672 9.465 14.315 15.458 24.87 15.458zM512.085 771.376l-100.695-203.994c-4.037-8.177-11.835-13.847-20.858-15.166l-225.216-32.92 162.942-158.703c6.542-6.374 9.527-15.556 7.984-24.559l-38.448-224.171 201.38 105.903c8.081 4.25 17.737 4.25 25.818 0l201.382-105.903-38.451 224.171c-1.545 9.003 1.442 18.185 7.983 24.559l162.944 158.703-225.216 32.92c-9.024 1.319-16.819 6.989-20.855 15.166l-100.693 203.994z" />
<glyph unicode="&#xe936;" glyph-name="time" d="M512.068 846.934c-220.326 0-398.935-178.608-398.935-398.934 0-220.322 178.609-398.933 398.935-398.933 220.322 0 398.933 178.611 398.933 398.933 0 220.326-178.611 398.934-398.933 398.934zM57.667 448c0 250.959 203.442 454.401 454.402 454.401 250.957 0 454.4-203.441 454.4-454.401 0-250.957-203.443-454.4-454.4-454.4-250.96 0-454.402 203.443-454.402 454.4zM512.068 731.734c15.313 0 27.733-12.416 27.733-27.733v-238.862l155.337-77.666c13.696-6.848 19.251-23.509 12.399-37.21-6.848-13.696-23.505-19.251-37.205-12.403l-170.667 85.333c-9.395 4.702-15.33 14.302-15.33 24.806v256.001c0 15.317 12.416 27.733 27.733 27.733z" />
<glyph unicode="&#xe937;" glyph-name="user-increase" d="M456.482 825.143c-65.731 0-119.016-53.284-119.016-119.014s53.284-119.014 119.016-119.014c65.728 0 119.010 53.284 119.010 119.014s-53.282 119.014-119.010 119.014zM282 706.129c0 96.363 78.117 174.48 174.482 174.48 96.363 0 174.477-78.118 174.477-174.48s-78.114-174.481-174.477-174.481c-96.365 0-174.482 78.118-174.482 174.481zM242.662 434.436c55.882 47.411 131.794 72.474 213.833 72.474 96.132 0 184.277-34.556 241.101-99.217 10.112-11.503 8.981-29.026-2.526-39.138s-29.030-8.981-39.138 2.526c-44.305 50.415-115.981 80.363-199.437 80.363-71.097 0-133.649-21.717-177.948-59.302-43.867-37.218-71.247-91.085-71.247-159.381v-52.015c0-15.317-12.416-27.733-27.733-27.733s-27.733 12.416-27.733 27.733v52.015c0 84.553 34.516 153.899 90.829 201.677zM893.171 491.238c10.833-10.833 10.833-28.39 0-39.223l-212.13-212.13c-33.203-33.203-87.087-33.203-120.294 0l-73.809 73.809c-11.546 11.546-30.306 11.546-41.852 0l-294.075-294.071c-10.831-10.833-28.39-10.833-39.221 0-10.831 10.829-10.831 28.39 0 39.219l294.075 294.076c33.205 33.203 87.089 33.203 120.297 0l73.809-73.809c11.541-11.546 30.306-11.546 41.852 0l212.13 212.13c10.829 10.829 28.39 10.829 39.219 0zM741.833 485.278c0 16.836 13.649 30.481 30.485 30.481h119.002l5.751-2.462-12.006-28.019c12.006 28.019 12.002 28.019 12.006 28.019l0.055-0.026 0.055-0.021 0.115-0.051 0.243-0.111 0.563-0.256c0.401-0.188 0.883-0.422 1.425-0.708 1.003-0.525 2.543-1.387 4.271-2.624 1.566-1.118 4.373-3.302 7.044-6.733 2.628-3.383 6.737-10.099 6.737-19.524v-112.747c0-16.836-13.649-30.485-30.481-30.485-16.836 0-30.485 13.649-30.485 30.485v84.301h-84.297c-16.836 0-30.485 13.645-30.485 30.481z" />
<glyph unicode="&#xe938;" glyph-name="face-id" d="M100.333 746.668c0 62.445 50.622 113.067 113.067 113.067h128c15.317 0 27.733-12.416 27.733-27.733s-12.416-27.733-27.733-27.733h-128c-31.811 0-57.6-25.788-57.6-57.6v-139.636c0-15.317-12.416-27.733-27.733-27.733s-27.733 12.416-27.733 27.733v139.636zM655.002 832.001c0 15.317 12.416 27.733 27.733 27.733h128c62.443 0 113.067-50.621 113.067-113.067v-139.636c0-15.317-12.42-27.733-27.733-27.733-15.317 0-27.733 12.416-27.733 27.733v139.636c0 31.812-25.792 57.6-57.6 57.6h-128c-15.317 0-27.733 12.417-27.733 27.733zM341.4 677.431c15.317 0 27.733-12.417 27.733-27.733v-42.667c0-15.317-12.416-27.733-27.733-27.733s-27.733 12.416-27.733 27.733v42.667c0 15.316 12.417 27.733 27.733 27.733zM682.735 677.431c15.313 0 27.733-12.417 27.733-27.733v-42.667c0-15.317-12.42-27.733-27.733-27.733-15.317 0-27.733 12.416-27.733 27.733v42.667c0 15.316 12.416 27.733 27.733 27.733zM499.665 573.655c13.7 6.85 30.357 1.297 37.205-12.403l42.667-85.335c5.342-10.675 3.247-23.569-5.193-32.013l-42.667-42.667c-10.833-10.829-28.39-10.829-39.223 0-10.829 10.833-10.829 28.39 0 39.223l28.535 28.531-33.728 67.455c-6.852 13.7-1.297 30.359 12.403 37.208zM128.067 320.585c15.317 0 27.733-12.42 27.733-27.733v-143.518c0-31.812 25.789-57.6 57.6-57.6h128c15.317 0 27.733-12.416 27.733-27.733s-12.416-27.733-27.733-27.733h-128c-62.445 0-113.067 50.624-113.067 113.067v143.518c0 15.313 12.417 27.733 27.733 27.733zM896.068 320.585c15.313 0 27.733-12.42 27.733-27.733v-143.518c0-62.443-50.624-113.067-113.067-113.067h-128c-15.317 0-27.733 12.416-27.733 27.733s12.416 27.733 27.733 27.733h128c31.808 0 57.6 25.788 57.6 57.6v143.518c0 15.313 12.416 27.733 27.733 27.733zM360.991 302.417c8.496 12.74 25.715 16.188 38.459 7.689 25.807-17.203 67.72-27.341 112.618-27.341 44.894 0 86.81 10.138 112.614 27.341 12.745 8.499 29.965 5.052 38.46-7.689 8.495-12.745 5.052-29.965-7.693-38.46-38.191-25.463-92.279-36.659-143.381-36.659-51.106 0-105.193 11.196-143.385 36.659-12.745 8.495-16.188 25.715-7.692 38.46z" />
<glyph unicode="&#xe939;" glyph-name="share-1" d="M725.402 804.268c-43.597 0-78.933-35.34-78.933-78.933 0-12.249 2.769-23.773 7.693-34.049 12.749-26.605 39.885-44.884 71.241-44.884 43.593 0 78.933 35.34 78.933 78.933s-35.341 78.933-78.933 78.933zM591.002 725.334c0 74.227 60.173 134.4 134.4 134.4s134.4-60.173 134.4-134.4c0-74.227-60.173-134.4-134.4-134.4-41.719 0-78.967 19.010-103.599 48.782l-214.862-155.799c3.169-11.452 4.859-23.501 4.859-35.917s-1.69-24.465-4.859-35.913l214.862-155.802c24.631 29.773 61.879 48.781 103.599 48.781 74.227 0 134.4-60.173 134.4-134.4s-60.173-134.4-134.4-134.4c-74.227 0-134.4 60.173-134.4 134.4 0 12.416 1.69 24.465 4.86 35.917l-214.863 155.802c-24.632-29.773-61.879-48.785-103.599-48.785-74.227 0-134.4 60.173-134.4 134.4s60.173 134.401 134.4 134.401c41.72 0 78.966-19.010 103.599-48.782l214.863 155.8c-3.17 11.45-4.86 23.499-4.86 35.915zM277.4 526.933c-43.593 0-78.933-35.337-78.933-78.933 0-43.593 35.34-78.933 78.933-78.933 31.354 0 58.492 18.278 71.239 44.885 4.923 10.274 7.694 21.798 7.694 34.048s-2.771 23.774-7.694 34.052c-12.748 26.603-39.886 44.881-71.239 44.881zM725.402 249.6c-31.356 0-58.492-18.278-71.241-44.881-4.924-10.278-7.693-21.803-7.693-34.052 0-43.593 35.337-78.933 78.933-78.933 43.593 0 78.933 35.341 78.933 78.933 0 43.597-35.341 78.933-78.933 78.933z" />
</font>
</defs>
</svg>
